(Classical) Johann Joachim Quantz - Flute Sonatas Nos. 272-277 - Verena Fischer, Klaus-Dieter Brandt, Leon Berben - 2009, FLAC (image+.cue) lossless


 

[Цитировать]

Johann Joachim Quantz - Flute Sonatas Nos. 272-277 - Verena Fischer, Klaus-Dieter Brandt, Léon Berben
Жанр: Classical
Год издания диска: 2009
Издатель (лейбл): Naxos
Номер по каталогу: 8.557805
Дата записи: 2006
Аудиокодек: FLAC
Тип рипа: image+.cue
Битрейт аудио: lossless
Продолжительность: 63:28
Источник: собственный рип
Наличие сканов в содержимом раздачи: да
Треклист:
Johann Joachim Quantz (1697–1773)
[1]-[3] Flute Sonata No. 272 in F major, QV. 1:93
[4]-[6] Flute Sonata No. 273 in G major, QV. 1:109
[7]-[9] Flute Sonata No. 274 in A major, QV. 1:145
[10]-[12] Flute Sonata No. 275 in B flat major, QV. 1:161
[13]-[15] Flute Sonata No. 276 in C minor, QV. 1:18
[16]-[18] Flute Sonata No. 277 in D major, QV. 1:42
Исполнители:
Verena Fischer transverse flute
Klaus-Dieter Brandt baroque cello
Léon Berben harpsichord

Лог создания рипа

Exact Audio Copy V1.0 beta 3 from 29. August 2011
EAC extraction logfile from 1. May 2015, 2:58
Verena Fischer, Klaus-Dieter Brandt, Leon Berben / Quantz - Flute Sonatas Nos.272-277
Used drive : HL-DT-STDVDRAM GU70N Adapter: 0 ID: 0
Read mode : Secure
Utilize accurate stream : Yes
Defeat audio cache : Yes
Make use of C2 pointers : No
Read offset correction : 48
Overread into Lead-In and Lead-Out : No
Fill up missing offset samples with silence : Yes
Delete leading and trailing silent blocks : No
Null samples used in CRC calculations : Yes
Used interface : Native Win32 interface for Win NT & 2000
Used output format : User Defined Encoder
Selected bitrate : 128 kBit/s
Quality : High
Add ID3 tag : No
Command line compressor : C:\Program Files (x86)\Exact Audio Copy\Flac\flac.exe
Additional command line options : -V -8 -T "Date=%year%" -T "Genre=%genre%" %source%
TOC of the extracted CD
Track | Start | Length | Start sector | End sector
---------------------------------------------------------
1 | 0:00.00 | 2:43.57 | 0 | 12281
2 | 2:43.57 | 3:57.21 | 12282 | 30077
3 | 6:41.03 | 5:02.74 | 30078 | 52801
4 | 11:44.02 | 3:05.50 | 52802 | 66726
5 | 14:49.52 | 4:00.22 | 66727 | 84748
6 | 18:49.74 | 4:24.03 | 84749 | 104551
7 | 23:14.02 | 2:53.62 | 104552 | 117588
8 | 26:07.64 | 3:00.45 | 117589 | 131133
9 | 29:08.34 | 5:38.41 | 131134 | 156524
10 | 34:47.00 | 2:42.32 | 156525 | 168706
11 | 37:29.32 | 3:29.28 | 168707 | 184409
12 | 40:58.60 | 4:03.21 | 184410 | 202655
13 | 45:02.06 | 2:37.44 | 202656 | 214474
14 | 47:39.50 | 2:56.73 | 214475 | 227747
15 | 50:36.48 | 2:47.58 | 227748 | 240330
16 | 53:24.31 | 2:43.36 | 240331 | 252591
17 | 56:07.67 | 3:29.44 | 252592 | 268310
18 | 59:37.36 | 3:48.42 | 268311 | 285452
Range status and errors
Selected range
Filename C:\temp\Naxos_8.557805 - Quantz - Flute Sonatas Nos.272-277\Quantz - Flute Sonatas Nos.272-277.wav
Peak level 94.8 %
Extraction speed 2.1 X
Range quality 99.9 %
Test CRC A05A1959
Copy CRC A05A1959
Copy OK
No errors occurred
AccurateRip summary
Track 1 accurately ripped (confidence 3) [D35AD2A9] (AR v1)
Track 2 accurately ripped (confidence 3) [B17A3607] (AR v1)
Track 3 accurately ripped (confidence 3) [FF9A0451] (AR v1)
Track 4 accurately ripped (confidence 3) [45FE2786] (AR v1)
Track 5 accurately ripped (confidence 3) [F95E593F] (AR v1)
Track 6 accurately ripped (confidence 3) [5E61EA74] (AR v1)
Track 7 accurately ripped (confidence 3) [30752DA9] (AR v1)
Track 8 accurately ripped (confidence 3) [4276D8EE] (AR v1)
Track 9 accurately ripped (confidence 3) [2FBFAE70] (AR v1)
Track 10 accurately ripped (confidence 3) [5B9E43AD] (AR v1)
Track 11 accurately ripped (confidence 3) [C9F64D88] (AR v1)
Track 12 accurately ripped (confidence 3) [F65036B0] (AR v1)
Track 13 accurately ripped (confidence 3) [DD8C14F0] (AR v1)
Track 14 accurately ripped (confidence 3) [14A85FE1] (AR v1)
Track 15 accurately ripped (confidence 3) [E206B3DB] (AR v1)
Track 16 accurately ripped (confidence 3) [B8D89680] (AR v1)
Track 17 accurately ripped (confidence 3) [84E46D2F] (AR v1)
Track 18 accurately ripped (confidence 3) [12B9BE23] (AR v1)
All tracks accurately ripped
End of status report
==== Log checksum 046F5648D5003A2693FCB19A53F058E48C634DC4482849181A9517590922CF33 ====



Показать сообщения:    

Текущее время: 05-Дек 05:25

Часовой пояс: UTC + 3


Вы не можете начинать темы
Вы не можете отвечать на сообщения
Вы не можете редактировать свои сообщения
Вы не можете удалять свои сообщения
Вы не можете голосовать в опросах
Вы не можете прикреплять файлы к сообщениям
Вы не можете скачивать файлы