(Classical / Symphony) Gustav Mahler - Symphonie Nr. 2 «Auferstehung» / «Resurrection» / Густав Малер - Симфония № 2 «Воскресение» (Barbara Kilduff, Christa Ludwig, Israel Philharmonic, James Levine, 27.02.1989) - 2010, FLAC (tracks+.cue) lossless


 

[Цитировать]

Gustav Mahler | Густав Малер
(1860–1911)



Symphonie Nr. 2 «Auferstehung»
Симфония № 2 «Воскресение»


Barbara Kilduff sopranoChrista Ludwig mezzo-soprano
National Choir «Rinat» (directed by Stanley Sperber)
Tel Aviv Philharmonic Choir (directed by Steven Sloane)
Ihud Choir (directed by Avner Itai)
Israel Philharmonic Orchestra
James Levine conductor


Жанр: Classical / Symphony
Дата и место записи: Mann Auditorium, Tel Aviv, 27 February 1989 (live)
Формат записи: DDD, Stereo
Год издания диска: 2010
Издатель (лейбл): Helicon
Номер по каталогу: 02-9634
Аудиокодек: FLAC
Тип рипа: tracks+.cue
Битрейт аудио: lossless
Продолжительность: 1:25:28
Наличие сканов в содержимом раздачи: да
Источник: What.CD
Релизёр: elemental5


Tracklist / Треклист
CD 1
Symphonie Nr. 2 c-moll «Auferstehung» - 1:25:28
I. Allegro maestoso - 22:09
CD 2
Symphonie Nr. 2 c-moll «Auferstehung» (cont.)
II. Andante moderato - 10:44
  • III. Scherzo: In ruhig fließender Bewegung - 11:04
  • IV. Urlicht: Sehr feierlich, aber schlicht - 4:56
  • V. Im Tempo des Scherzo. Wild herausfahrend. — Langsam. — Allegro energico. — Langsam - 36:35

    -

    EAC logs / Отчёты EACCD 1

    Exact Audio Copy V1.0 beta 4 from 7. December 2014
    EAC extraction logfile from 5. May 2015, 16:30
    James Levine - IPO / Mahler Sinfonie Nr.2 "Auferstehung" (Helicon 02-9634) Disc 1
    Used drive : HL-DT-STDVDRAM GE20NU10 Adapter: 1 ID: 1
    Read mode : Secure
    Utilize accurate stream : Yes
    Defeat audio cache : Yes
    Make use of C2 pointers : No
    Read offset correction : 667
    Overread into Lead-In and Lead-Out : No
    Fill up missing offset samples with silence : Yes
    Delete leading and trailing silent blocks : No
    Null samples used in CRC calculations : Yes
    Used interface : Native Win32 interface for Win NT & 2000
    Gap handling : Appended to previous track
    Used output format : User Defined Encoder
    Selected bitrate : 1024 kBit/s
    Quality : High
    Add ID3 tag : No
    Command line compressor : C:\Program Files (x86)\Exact Audio Copy\Flac\flac.exe
    Additional command line options : -8 -V -T "ARTIST=%artist%" -T "TITLE=%title%" -T "ALBUM=%albumtitle%" -T "DATE=%year%" -T "TRACKNUMBER=%tracknr%" -T "GENRE=%genre%" -T "PERFORMER=%albuminterpret%" -T "COMPOSER=%composer%" %haslyrics%--tag-from-file=LYRICS="%lyricsfile%"%haslyrics% -T "ALBUMARTIST=%albumartist%" -T "DISCNUMBER=%cdnumber%" -T "TOTALDISCS=%totalcds%" -T "TOTALTRACKS=%numtracks%" -T "COMMENT=%comment%" %source% -o %dest%
    TOC of the extracted CD
    Track | Start | Length | Start sector | End sector
    ---------------------------------------------------------
    1 | 0:00.00 | 22:09.11 | 0 | 99685
    Track 1
    Filename C:\Users\elemental5\Documents\01. 1.Allegro maestoso.wav
    Pre-gap length 0:00:02.00
    Peak level 99.9 %
    Extraction speed 5.8 X
    Track quality 100.0 %
    Test CRC 8E2B38A4
    Copy CRC 8E2B38A4
    Accurately ripped (confidence 1) [A65CD2D6] (AR v2)
    Copy OK
    All tracks accurately ripped
    No errors occurred
    End of status report
    ---- CUETools DB Plugin V2.1.4
    [CTDB TOCID: 8kBONmvpaMzRnBeL2dhetrdLw8I-] found
    Submit result: 8kBONmvpaMzRnBeL2dhetrdLw8I- has been uploaded
    Track | CTDB Status
    1 | (0/1) No match
    ==== Log checksum AFD9AE83C9B53EFBDE43D2504251A1614CA4B5C35E974FA8E0D44FE8C4419546 ====

    CD 2

    Exact Audio Copy V1.0 beta 4 from 7. December 2014
    EAC extraction logfile from 5. May 2015, 16:55
    James Levine - IPO / Mahler Sinfonie Nr.2 "Auferstehung" (Helicon 02-9634) Disc 2
    Used drive : HL-DT-STDVDRAM GE20NU10 Adapter: 1 ID: 1
    Read mode : Secure
    Utilize accurate stream : Yes
    Defeat audio cache : Yes
    Make use of C2 pointers : No
    Read offset correction : 667
    Overread into Lead-In and Lead-Out : No
    Fill up missing offset samples with silence : Yes
    Delete leading and trailing silent blocks : No
    Null samples used in CRC calculations : Yes
    Used interface : Native Win32 interface for Win NT & 2000
    Gap handling : Appended to previous track
    Used output format : User Defined Encoder
    Selected bitrate : 1024 kBit/s
    Quality : High
    Add ID3 tag : No
    Command line compressor : C:\Program Files (x86)\Exact Audio Copy\Flac\flac.exe
    Additional command line options : -8 -V -T "ARTIST=%artist%" -T "TITLE=%title%" -T "ALBUM=%albumtitle%" -T "DATE=%year%" -T "TRACKNUMBER=%tracknr%" -T "GENRE=%genre%" -T "PERFORMER=%albuminterpret%" -T "COMPOSER=%composer%" %haslyrics%--tag-from-file=LYRICS="%lyricsfile%"%haslyrics% -T "ALBUMARTIST=%albumartist%" -T "DISCNUMBER=%cdnumber%" -T "TOTALDISCS=%totalcds%" -T "TOTALTRACKS=%numtracks%" -T "COMMENT=%comment%" %source% -o %dest%
    TOC of the extracted CD
    Track | Start | Length | Start sector | End sector
    ---------------------------------------------------------
    1 | 0:00.00 | 10:44.11 | 0 | 48310
    2 | 10:44.11 | 11:04.10 | 48311 | 98120
    3 | 21:48.21 | 4:55.58 | 98121 | 120303
    4 | 26:44.04 | 36:35.21 | 120304 | 284949
    Track 1
    Filename C:\Users\elemental5\Documents\01. 2.Andante moderato.wav
    Pre-gap length 0:00:02.00
    Peak level 50.3 %
    Extraction speed 4.2 X
    Track quality 100.0 %
    Test CRC 2B304E64
    Copy CRC 2B304E64
    Accurately ripped (confidence 1) [05C23D78] (AR v2)
    Copy OK
    Track 2
    Filename C:\Users\elemental5\Documents\02. 3.In ruhig fliessender Bewegung.wav
    Peak level 99.9 %
    Extraction speed 5.2 X
    Track quality 100.0 %
    Test CRC 9ED00D29
    Copy CRC 9ED00D29
    Accurately ripped (confidence 1) [034187DF] (AR v2)
    Copy OK
    Track 3
    Filename C:\Users\elemental5\Documents\03. 4.'Urlicht', Sehr feierlich, aber schlicht.wav
    Peak level 31.7 %
    Extraction speed 4.4 X
    Track quality 99.9 %
    Test CRC AE378FBF
    Copy CRC AE378FBF
    Accurately ripped (confidence 1) [9384DF25] (AR v2)
    Copy OK
    Track 4
    Filename C:\Users\elemental5\Documents\04. 5.Im Tempo des Scherzo.wav
    Peak level 99.9 %
    Extraction speed 7.0 X
    Track quality 100.0 %
    Test CRC 38A57C3A
    Copy CRC 38A57C3A
    Accurately ripped (confidence 1) [A801CCA9] (AR v2)
    Copy OK
    All tracks accurately ripped
    No errors occurred
    End of status report
    ---- CUETools DB Plugin V2.1.4
    [CTDB TOCID: t8W6TmP1s9FskzczQZfYOaksY_8-] disk not present in database
    Submit result: t8W6TmP1s9FskzczQZfYOaksY_8- has been uploaded
    ==== Log checksum F393CA7F400E06B99FF790A0500DBA51BAFA6A364ED815D46B132CF1DD2E2A7A ====

    auCDtect Task Manager logs / Отчёты auCDtect Task ManagerCD 1

    -----------------------
    DON'T MODIFY THIS FILE
    -----------------------
    PERFORMER: auCDtect Task Manager, ver. 1.5.1RC3 build 1.5.1.4
    Copyright (c) 2008-2010 y-soft. All rights reserved
    ANALYZER: auCDtect: CD records authenticity detector, version 0.8.2
    Copyright (c) 2004 Oleg Berngardt. All rights reserved.
    Copyright (c) 2004 Alexander Djourik. All rights reserved.
    FILE: 01 - Symphonie Nr. 2 - I. Allegro maestoso.flac
    Size: 99398622 Hash: 7EB96A028C161EF656521EAEE16F74CE Accuracy: -m0
    Conclusion: CDDA 100%
    Signature: E70855FCE8EE83303B73D30679FF663C9374E0BE

    CD 2

    -----------------------
    DON'T MODIFY THIS FILE
    -----------------------
    PERFORMER: auCDtect Task Manager, ver. 1.5.1RC3 build 1.5.1.4
    Copyright (c) 2008-2010 y-soft. All rights reserved
    ANALYZER: auCDtect: CD records authenticity detector, version 0.8.2
    Copyright (c) 2004 Oleg Berngardt. All rights reserved.
    Copyright (c) 2004 Alexander Djourik. All rights reserved.
    FILE: 04 - Symphonie Nr. 2 - V. Im Tempo des Scherzo. Wild herausfahrend. - Langsam. - Allegro energico. - Langsam.flac
    Size: 170315748 Hash: A82C26A2C159A9AC78E0DC2AE532DA1E Accuracy: -m0
    Conclusion: CDDA 100%
    Signature: E4256E858C8AB781ED780C4F631C20E85279C1E6
    FILE: 03 - Symphonie Nr. 2 - IV. Urlicht. Sehr feierlich, aber schlicht.flac
    Size: 20612558 Hash: 83AA6238A634C6DD87BB01301B2F958E Accuracy: -m0
    Conclusion: CDDA 99%
    Signature: 10E4FEDF275F30C3D08008725201F3015896102A
    FILE: 02 - Symphonie Nr. 2 - III. Scherzo. In ruhig fliessender Bewegung.flac
    Size: 49778472 Hash: 0522FAF13C6A7F5157ABC9D7007097C8 Accuracy: -m0
    Conclusion: CDDA 100%
    Signature: 7899C7B6AD879855F02C6FE8FBA57F854B091879
    FILE: 01 - Symphonie Nr. 2 - II. Andante moderato.flac
    Size: 44459431 Hash: 12FF4B293B6E06ED1D9EF50F88871DED Accuracy: -m0
    Conclusion: CDDA 100%
    Signature: 31259C6343EB5AADAEB52F6D09DE14D5A0F660E2

    CUETools logs / Отчёты CUEToolsCD 1

    [CUETools log; Date: 18.05.2015 21:57:09; Version: 2.1.4]
    [AccurateRip ID: 00018566-00030acd-02053101] found.
    Track [ CRC | V2 ] Status
    01 [1f33c219|a65cd2d6] (1+1/2) Accurately ripped
    Track Peak [ CRC32 ] [W/O NULL] [ LOG ]
    -- 99,9 [8E2B38A4] [0E77AB33] CRC32
    01 99,9 [8E2B38A4] [0E77AB33] CRC32

    CD 2

    [CUETools log; Date: 18.05.2015 21:57:21; Version: 2.1.4]
    [AccurateRip ID: 00086b06-00230c78-240ed704] found.
    Track [ CRC | V2 ] Status
    01 [26b5f479|05c23d78] (1+1/2) Accurately ripped
    02 [9da21ee8|034187df] (1+1/2) Accurately ripped
    03 [a6948c5d|9384df25] (1+1/2) Accurately ripped
    04 [e61cde28|a801cca9] (1+1/2) Accurately ripped
    Track Peak [ CRC32 ] [W/O NULL] [ LOG ]
    -- 99,9 [AED38AB6] [07BAA622]
    01 50,3 [2B304E64] [4FC70A17] CRC32
    02 99,9 [9ED00D29] [6CABEA74] CRC32
    03 31,7 [AE378FBF] [14C6DDC1] CRC32
    04 99,9 [38A57C3A] [FE0461EB] CRC32

    CUE sheetsCD 1

    TITLE "Gustav Mahler: Symphonie Nr. 2 c-moll «Auferstehung»"
    PERFORMER "James Levine"
    REM GENRE Classical
    REM DISCID 02053101
    REM COMMENT "ExactAudioCopy v1.0b4"
    FILE "01 - Symphonie Nr. 2 - I. Allegro maestoso.flac" WAVE
    TRACK 01 AUDIO
    TITLE "Symphonie Nr. 2 c-moll «Auferstehung»: I. Allegro maestoso"
    PERFORMER "Israel Philharmonic Orchestra & James Levine"
    REM DATE 1989
    INDEX 01 00:00:00

    CD 2

    TITLE "Gustav Mahler: Symphonie Nr. 2 c-moll «Auferstehung»"
    PERFORMER "James Levine"
    REM GENRE Classical
    REM DISCID 240ED704
    REM COMMENT "ExactAudioCopy v1.0b4"
    FILE "01 - Symphonie Nr. 2 - II. Andante moderato.flac" WAVE
    TRACK 01 AUDIO
    TITLE "Symphonie Nr. 2 c-moll «Auferstehung»: II. Andante moderato"
    PERFORMER "Israel Philharmonic Orchestra & James Levine"
    REM DATE 1989
    INDEX 01 00:00:00
    FILE "02 - Symphonie Nr. 2 - III. Scherzo. In ruhig fliessender Bewegung.flac" WAVE
    TRACK 02 AUDIO
    TITLE "Symphonie Nr. 2 c-moll «Auferstehung»: III. Scherzo: In ruhig fließender Bewegung"
    PERFORMER "Israel Philharmonic Orchestra & James Levine"
    REM DATE 1989
    INDEX 01 00:00:00
    FILE "03 - Symphonie Nr. 2 - IV. Urlicht. Sehr feierlich, aber schlicht.flac" WAVE
    TRACK 03 AUDIO
    TITLE "Symphonie Nr. 2 c-moll «Auferstehung»: IV. Urlicht: Sehr feierlich, aber schlicht"
    PERFORMER "Christa Ludwig, Israel Philharmonic Orchestra & James Levine"
    REM DATE 1989
    INDEX 01 00:00:00
    FILE "04 - Symphonie Nr. 2 - V. Im Tempo des Scherzo. Wild herausfahrend. - Langsam. - Allegro energico. - Langsam.flac" WAVE
    TRACK 04 AUDIO
    TITLE "Symphonie Nr. 2 c-moll «Auferstehung»: V. Im Tempo des Scherzo. Wild herausfahrend. — Langsam. — Allegro energico. — Langsam"
    PERFORMER "Barbara Kilduff, Christa Ludwig, National Choir «Rinat», Tel Aviv Philharmonic Choir, Ihud Choir, Israel Philharmonic Orchestra & James Levine"
    REM DATE 1989
    INDEX 01 00:00:00
    -
    Gustav Mahler — каталог раздач на rutracker.orgВсе мои раздачи / All my releases



  • Показать сообщения:    

    Текущее время: 06-Дек 22:55

    Часовой пояс: UTC + 3


    Вы не можете начинать темы
    Вы не можете отвечать на сообщения
    Вы не можете редактировать свои сообщения
    Вы не можете удалять свои сообщения
    Вы не можете голосовать в опросах
    Вы не можете прикреплять файлы к сообщениям
    Вы не можете скачивать файлы