Вагнер - Лоэнгрин / Wagner - Lohengrin (Peter Hofmann, Karan Armstrong, Elizabeth Connell) Woldemar Nelsson / Gotz Friedrich [1982/2006, Opera, DVD9+DVD5]


 

[Цитировать]

Wagner - LohengrinРихард ВАГНЕР - ЛОЭНГРИН ___________________________________________________________________________
Год записи/выпуска: 1982/2006
Лейбл: Euro Arts
Страна-производитель: Germany
Жанр: Opera
Продолжительность: 200 min.
Язык: Немецкий
Субтитры: English, French, Deutsch, Espanol
Режиссер: Götz Friedrich
Исполнители:
Siegfried Vogel (König Heinrich)
Peter Hofmann (Lohengrin)
Karan Armstrong (Elsa von Brabant)
Leif Roar (Telramund)
Elizabeth Connell (Ortrud)
Bernd Weikl (Herrufer)
○ Orchester der Bayreuther Festspiele
Dirigent - Woldemar Nelsson
○ Chor der Bayreuther Festspiele
Leitung - Norbert Balatsch
○ Bildregie - Brian Large
Качество видео: DVD9+DVD5
Формат/Контейнер: DVDVideo
Видео кодек: MPEG2
Видео поток: NTSC 4:3, 720x480, VBR
Аудио поток: AС-3 5.1 , DTS 5.1, PCM

Скриншоты

MediaInfoКод:General
Complete name : D: Wagner - Lohengrin (Nelsson-Bayreuther) 1982\DVD 1\VIDEO_TS\VTS_02_1.VOB
Format : MPEG-PS
File size : 1 024 MiB
Duration : 19mn 24s
Overall bit rate mode : Variable
Overall bit rate : 7 374 Kbps
Video
ID : 224 (0xE0)
Format : MPEG Video
Format version : Version 2
Format profile : Main@Main
Format settings, BVOP : Yes
Format settings, Matrix : Custom
Format settings, GOP : M=3, N=15
Duration : 19mn 24s
Bit rate mode : Variable
Bit rate : 4 489 Kbps
Maximum bit rate : 7 100 Kbps
Width : 720 pixels
Height : 480 pixels
Display aspect ratio : 4:3
Frame rate : 29.970 fps
Standard : NTSC
Color space : YUV
Chroma subsampling : 4:2:0
Bit depth : 8 bits
Scan type : Interlaced
Scan order : Top Field First
Compression mode : Lossy
Bits/(Pixel*Frame) : 0.433
Time code of first frame : 10:00:00:00
Time code source : Group of pictures header
Stream size : 623 MiB (61%)
Audio #1
ID : 189 (0xBD)-129 (0x81)
Format : AC-3
Format/Info : Audio Coding 3
Mode extension : CM (complete main)
Format settings, Endianness : Big
Muxing mode : DVD-Video
Duration : 19mn 24s
Bit rate mode : Constant
Bit rate : 448 Kbps
Channel(s) : 6 channels
Channel positions : Front: L C R, Side: L R, LFE
Sampling rate : 48.0 KHz
Bit depth : 16 bits
Compression mode : Lossy
Stream size : 62.2 MiB (6%)
Audio #2
ID : 189 (0xBD)-138 (0x8A)
Format : DTS
Format/Info : Digital Theater Systems
Mode : 16
Format settings, Endianness : Big
Muxing mode : DVD-Video
Duration : 19mn 24s
Bit rate mode : Constant
Bit rate : 755 Kbps
Channel(s) : 6 channels
Channel positions : Front: L C R, Side: L R, LFE
Sampling rate : 48.0 KHz
Bit depth : 16 bits
Compression mode : Lossy
Stream size : 105 MiB (10%)
Audio #3
ID : 189 (0xBD)-160 (0xA0)
Format : PCM
Format settings, Endianness : Big
Format settings, Sign : Signed
Muxing mode : DVD-Video
Duration : 19mn 24s
Bit rate mode : Constant
Bit rate : 1 536 Kbps
Channel(s) : 2 channels
Sampling rate : 48.0 KHz
Bit depth : 16 bits
Stream size : 213 MiB (21%)
Menu



Показать сообщения:    

Текущее время: 02-Дек 21:14

Часовой пояс: UTC + 3


Вы не можете начинать темы
Вы не можете отвечать на сообщения
Вы не можете редактировать свои сообщения
Вы не можете удалять свои сообщения
Вы не можете голосовать в опросах
Вы не можете прикреплять файлы к сообщениям
Вы не можете скачивать файлы