(Classical / Symphony) Gustav Mahler - Symphonie Nr. 2 «Auferstehung» / «Resurrection» / Густав Малер - Симфония № 2 «Воскресение» (Kathleen Battle, Christa Ludwig, Wiener Philharmoniker, James Levine, 19.08.1989) - 2011, FLAC (tracks+.cue) lossless


 

[Цитировать]

Gustav Mahler | Густав Малер
(1860–1911)



Symphonie Nr. 2 «Auferstehung»
Симфония № 2 «Воскресение»


Kathleen Battle sopranoChrista Ludwig mezzo-soprano
Konzertvereinigung Wiener Staatsopernchor
Wiener Philharmoniker
James Levine conductor


Жанр: Classical / Symphony
Дата и место записи: Großes Festspielhaus, Salzburg, 19.08.1989 (live)
Формат записи: ADD, Stereo
Год издания диска: 2011
Издатель (лейбл): Orfeo
Номер по каталогу: C 837 111 B
Аудиокодек: FLAC
Тип рипа: tracks+.cue
Битрейт аудио: lossless
Продолжительность: 1:29:02
Наличие сканов в содержимом раздачи: да
Источник: What.CD
Релизёр: elemental5


Tracklist / Треклист
CD 1
Symphonie Nr. 2 c-moll «Auferstehung» - 1:29:02
I. Allegro maestoso - 23:26
CD 2
Symphonie Nr. 2 c-moll «Auferstehung» (cont.)
II. Andante moderato - 11:53
  • III. Scherzo: In ruhig fließender Bewegung - 10:42
  • IV. Urlicht: Sehr feierlich, aber schlicht - 4:47
  • V. Im Tempo des Scherzo. Wild herausfahrend. — Langsam. — Allegro energico. — Langsam - 38:14

    -

    EAC logs / Отчёты EACCD 1

    Exact Audio Copy V1.0 beta 4 from 7. December 2014
    EAC extraction logfile from 16. May 2015, 18:43
    James Levine - Vienna Philharmonic Orchestra, Konzertvereinigung Wiener Staatsopernchor / Mahler - Symphony No.2 - Levine-VPO,Battle,Ludwig,Chorus (Orfeo 2CDs C 837 112B)
    Used drive : HL-DT-STDVDRAM GE20NU10 Adapter: 1 ID: 1
    Read mode : Secure
    Utilize accurate stream : Yes
    Defeat audio cache : Yes
    Make use of C2 pointers : No
    Read offset correction : 667
    Overread into Lead-In and Lead-Out : No
    Fill up missing offset samples with silence : Yes
    Delete leading and trailing silent blocks : No
    Null samples used in CRC calculations : Yes
    Used interface : Native Win32 interface for Win NT & 2000
    Gap handling : Appended to previous track
    Used output format : User Defined Encoder
    Selected bitrate : 1024 kBit/s
    Quality : High
    Add ID3 tag : No
    Command line compressor : C:\Program Files (x86)\Exact Audio Copy\Flac\flac.exe
    Additional command line options : -8 -V -T "ARTIST=%artist%" -T "TITLE=%title%" -T "ALBUM=%albumtitle%" -T "DATE=%year%" -T "TRACKNUMBER=%tracknr%" -T "GENRE=%genre%" -T "PERFORMER=%albuminterpret%" -T "COMPOSER=%composer%" %haslyrics%--tag-from-file=LYRICS="%lyricsfile%"%haslyrics% -T "ALBUMARTIST=%albumartist%" -T "DISCNUMBER=%cdnumber%" -T "TOTALDISCS=%totalcds%" -T "TOTALTRACKS=%numtracks%" -T "COMMENT=%comment%" %source% -o %dest%
    TOC of the extracted CD
    Track | Start | Length | Start sector | End sector
    ---------------------------------------------------------
    1 | 0:00.00 | 23:26.08 | 0 | 105457
    Track 1
    Filename C:\Users\elemental5\Documents\01. Allegro moderato.wav
    Pre-gap length 0:00:02.00
    Peak level 76.8 %
    Extraction speed 5.9 X
    Track quality 100.0 %
    Test CRC D2B7AF7F
    Copy CRC D2B7AF7F
    Accurately ripped (confidence 5) [54BC37C2] (AR v2)
    Copy OK
    All tracks accurately ripped
    No errors occurred
    End of status report
    ---- CUETools DB Plugin V2.1.4
    [CTDB TOCID: 7QyCfrNGVH.LSXrvsN5nVSq0qYw-] found
    Submit result: already submitted
    Track | CTDB Status
    1 | (5/5) Accurately ripped
    ==== Log checksum 8C2F18C7ACC003771E7A9F0AC2156AD5412AD60C1F21CF6EB732E6D7AAE3F834 ====

    CD 2

    Exact Audio Copy V1.0 beta 4 from 7. December 2014
    EAC extraction logfile from 16. May 2015, 18:29
    James Levine & Wiener Philharmoniker / Mahler : Symphony No.2 (89.8.19) (CD2)
    Used drive : HL-DT-STDVDRAM GE20NU10 Adapter: 1 ID: 1
    Read mode : Secure
    Utilize accurate stream : Yes
    Defeat audio cache : Yes
    Make use of C2 pointers : No
    Read offset correction : 667
    Overread into Lead-In and Lead-Out : No
    Fill up missing offset samples with silence : Yes
    Delete leading and trailing silent blocks : No
    Null samples used in CRC calculations : Yes
    Used interface : Native Win32 interface for Win NT & 2000
    Gap handling : Appended to previous track
    Used output format : User Defined Encoder
    Selected bitrate : 1024 kBit/s
    Quality : High
    Add ID3 tag : No
    Command line compressor : C:\Program Files (x86)\Exact Audio Copy\Flac\flac.exe
    Additional command line options : -8 -V -T "ARTIST=%artist%" -T "TITLE=%title%" -T "ALBUM=%albumtitle%" -T "DATE=%year%" -T "TRACKNUMBER=%tracknr%" -T "GENRE=%genre%" -T "PERFORMER=%albuminterpret%" -T "COMPOSER=%composer%" %haslyrics%--tag-from-file=LYRICS="%lyricsfile%"%haslyrics% -T "ALBUMARTIST=%albumartist%" -T "DISCNUMBER=%cdnumber%" -T "TOTALDISCS=%totalcds%" -T "TOTALTRACKS=%numtracks%" -T "COMMENT=%comment%" %source% -o %dest%
    TOC of the extracted CD
    Track | Start | Length | Start sector | End sector
    ---------------------------------------------------------
    1 | 0:00.00 | 11:52.43 | 0 | 53442
    2 | 11:52.43 | 10:42.16 | 53443 | 101608
    3 | 22:34.59 | 4:47.00 | 101609 | 123133
    4 | 27:21.59 | 38:13.65 | 123134 | 295173
    Track 1
    Filename C:\Users\elemental5\Documents\01. Symphony No.2 in C minor - II. Andante moderato. Sehr gemachlich.wav
    Pre-gap length 0:00:02.00
    Peak level 49.7 %
    Extraction speed 5.3 X
    Track quality 100.0 %
    Test CRC 44B182A6
    Copy CRC 44B182A6
    Accurately ripped (confidence 5) [D270F183] (AR v2)
    Copy OK
    Track 2
    Filename C:\Users\elemental5\Documents\02. Symphony No.2 in C minor - III. In ruhig fliesender Bewegung.wav
    Pre-gap length 0:00:59.80
    Peak level 67.3 %
    Extraction speed 6.3 X
    Track quality 100.0 %
    Test CRC 63DF267A
    Copy CRC 63DF267A
    Accurately ripped (confidence 5) [BDEE6971] (AR v2)
    Copy OK
    Track 3
    Filename C:\Users\elemental5\Documents\03. Symphony No.2 in C minor - IV. ''Urlicht''. Sehr feierlich, aber schlicht.wav
    Peak level 21.9 %
    Extraction speed 6.5 X
    Track quality 100.0 %
    Test CRC E110EC68
    Copy CRC E110EC68
    Accurately ripped (confidence 5) [9719FD4F] (AR v2)
    Copy OK
    Track 4
    Filename C:\Users\elemental5\Documents\04. Symphony No.2 in C minor - V. Im Tempo des Scherzos. Wild herausfahrend.wav
    Peak level 92.6 %
    Extraction speed 8.5 X
    Track quality 100.0 %
    Test CRC F3635850
    Copy CRC F3635850
    Accurately ripped (confidence 5) [41E7F49F] (AR v2)
    Copy OK
    All tracks accurately ripped
    No errors occurred
    End of status report
    ---- CUETools DB Plugin V2.1.4
    [CTDB TOCID: yuRnDmlvAOQpwYTeqfQV.2_uVvw-] found
    Submit result: yuRnDmlvAOQpwYTeqfQV.2_uVvw- has been confirmed
    Track | CTDB Status
    1 | (4/4) Accurately ripped
    2 | (4/4) Accurately ripped
    3 | (4/4) Accurately ripped
    4 | (4/4) Accurately ripped
    ==== Log checksum B71847EFE210657A5FF5D0DE5468C7CA730941700EF111EE819D2A001BBBF46C ====

    auCDtect Task Manager logs / Отчёты auCDtect Task ManagerCD 1

    -----------------------
    DON'T MODIFY THIS FILE
    -----------------------
    PERFORMER: auCDtect Task Manager, ver. 1.5.1RC3 build 1.5.1.4
    Copyright (c) 2008-2010 y-soft. All rights reserved
    ANALYZER: auCDtect: CD records authenticity detector, version 0.8.2
    Copyright (c) 2004 Oleg Berngardt. All rights reserved.
    Copyright (c) 2004 Alexander Djourik. All rights reserved.
    FILE: 01 - Symphonie Nr. 2 - I. Allegro maestoso.flac
    Size: 98395721 Hash: F8A7ED509E534545BF524929153FFB9C Accuracy: -m0
    Conclusion: MPEG 100%
    Signature: 3A4A1C8B87C39A3E68B0657864CC557BE04DC021

    CD 2

    -----------------------
    DON'T MODIFY THIS FILE
    -----------------------
    PERFORMER: auCDtect Task Manager, ver. 1.5.1RC3 build 1.5.1.4
    Copyright (c) 2008-2010 y-soft. All rights reserved
    ANALYZER: auCDtect: CD records authenticity detector, version 0.8.2
    Copyright (c) 2004 Oleg Berngardt. All rights reserved.
    Copyright (c) 2004 Alexander Djourik. All rights reserved.
    FILE: 04 - Symphonie Nr. 2 - V. Im Tempo des Scherzo. Wild herausfahrend. - Langsam. - Allegro energico. - Langsam.flac
    Size: 166973421 Hash: 739FF946A8B35A208B5A79676A11BA17 Accuracy: -m0
    Conclusion: MPEG 100%
    Signature: D0345A2C357E29D7D7E40D3F7103F1E1FCBD94D2
    FILE: 03 - Symphonie Nr. 2 - IV. Urlicht. Sehr feierlich, aber schlicht.flac
    Size: 17071221 Hash: 3F6D4564483F8B207626EE89C40AEB10 Accuracy: -m0
    Conclusion: MPEG 100%
    Signature: C74ED11CC3450B9EFA9604DA0A9CD3F08168AA77
    FILE: 02 - Symphonie Nr. 2 - III. Scherzo. In ruhig fliessender Bewegung.flac
    Size: 42624287 Hash: C623FFD8958AD62BAE48C5A8E8D87377 Accuracy: -m0
    Conclusion: MPEG 100%
    Signature: 17BF6B24BD911EFBF2EC80BC69A3A289C92969D9
    FILE: 01 - Symphonie Nr. 2 - II. Andante moderato.flac
    Size: 43674184 Hash: 4A3D618365E1CC54C8EEAAF39BDF5E08 Accuracy: -m0
    Conclusion: MPEG 100%
    Signature: 161773174215446A7EA985CDED052CF3D02ED0C8

    CUETools logs / Отчёты CUEToolsCD 1

    [CUETools log; Date: 18.05.2015 22:43:53; Version: 2.1.4]
    [AccurateRip ID: 00019bf2-000337e5-02057e01] found.
    Track [ CRC | V2 ] Status
    01 [fbc143bf|54bc37c2] (0+5/7) Accurately ripped
    Offsetted by -30:
    01 [06b4dd9e] (0/7) No match (V2 was not tested)
    Track Peak [ CRC32 ] [W/O NULL] [ LOG ]
    -- 76,8 [D2B7AF7F] [D561727A] CRC32
    01 76,8 [D2B7AF7F] [D561727A] CRC32

    CD 2

    [CUETools log; Date: 18.05.2015 22:44:04; Version: 2.1.4]
    [AccurateRip ID: 0008bfb0-00245158-2b0f5f04] found.
    Track [ CRC | V2 ] Status
    01 [b6170e80|d270f183] (0+5/5) Accurately ripped
    02 [685ccb99|bdee6971] (0+5/5) Accurately ripped
    03 [56dc9de6|9719fd4f] (0+5/5) Accurately ripped
    04 [2acda2b7|41e7f49f] (0+5/5) Accurately ripped
    Track Peak [ CRC32 ] [W/O NULL] [ LOG ]
    -- 92,6 [14C0677A] [FF2C927B]
    01 49,7 [44B182A6] [A79ED9B3] CRC32
    02 67,3 [63DF267A] [23E2255A] CRC32
    03 21,9 [E110EC68] [E0A4D41B] CRC32
    04 92,6 [F3635850] [F01F270F] CRC32

    CUE sheetsCD 1

    TITLE "Gustav Mahler: Symphonie Nr. 2 c-moll «Auferstehung»"
    PERFORMER "James Levine"
    REM GENRE Classical
    REM DISCID 02057E01
    REM COMMENT "ExactAudioCopy v1.0b4"
    CATALOG 4011790837123
    FILE "01 - Symphonie Nr. 2 - I. Allegro maestoso.flac" WAVE
    TRACK 01 AUDIO
    TITLE "Symphonie Nr. 2 c-moll «Auferstehung»: I. Allegro maestoso"
    PERFORMER "Wiener Philharmoniker & James Levine"
    REM DATE 1989
    INDEX 01 00:00:00

    CD 2

    TITLE "Gustav Mahler: Symphonie Nr. 2 c-moll «Auferstehung»"
    PERFORMER "James Levine"
    REM GENRE Classical
    REM DISCID 2B0F5F04
    REM COMMENT "ExactAudioCopy v1.0b4"
    CATALOG 4011790837123
    FILE "01 - Symphonie Nr. 2 - II. Andante moderato.flac" WAVE
    TRACK 01 AUDIO
    TITLE "Symphonie Nr. 2 c-moll «Auferstehung»: II. Andante moderato"
    PERFORMER "Wiener Philharmoniker & James Levine"
    REM DATE 1989
    INDEX 01 00:00:00
    TRACK 02 AUDIO
    TITLE "Symphonie Nr. 2 c-moll «Auferstehung»: III. Scherzo: In ruhig fließender Bewegung"
    PERFORMER "Wiener Philharmoniker & James Levine"
    REM DATE 1989
    INDEX 00 10:52:58
    FILE "02 - Symphonie Nr. 2 - III. Scherzo. In ruhig fliessender Bewegung.flac" WAVE
    INDEX 01 00:00:00
    FILE "03 - Symphonie Nr. 2 - IV. Urlicht. Sehr feierlich, aber schlicht.flac" WAVE
    TRACK 03 AUDIO
    TITLE "Symphonie Nr. 2 c-moll «Auferstehung»: IV. Urlicht: Sehr feierlich, aber schlicht"
    PERFORMER "Christa Ludwig, Wiener Philharmoniker & James Levine"
    REM DATE 1989
    INDEX 01 00:00:00
    FILE "04 - Symphonie Nr. 2 - V. Im Tempo des Scherzo. Wild herausfahrend. - Langsam. - Allegro energico. - Langsam.flac" WAVE
    TRACK 04 AUDIO
    TITLE "Symphonie Nr. 2 c-moll «Auferstehung»: V. Im Tempo des Scherzo. Wild herausfahrend. — Langsam. — Allegro energico. — Langsam"
    PERFORMER "Kathleen Battle, Christa Ludwig, Konzertvereinigung Wiener Staatsopernchor, Wiener Philharmoniker & James Levine"
    REM DATE 1989
    INDEX 01 00:00:00
    -
    Gustav Mahler — каталог раздач на rutracker.orgВсе мои раздачи / All my releases



  • Показать сообщения:    

    Текущее время: 08-Дек 07:08

    Часовой пояс: UTC + 3


    Вы не можете начинать темы
    Вы не можете отвечать на сообщения
    Вы не можете редактировать свои сообщения
    Вы не можете удалять свои сообщения
    Вы не можете голосовать в опросах
    Вы не можете прикреплять файлы к сообщениям
    Вы не можете скачивать файлы