[TR24][OF] П.И. Чайковский - Симфонии №№ 4-6 / P. Tchaikovsky - Symphonies Nos. 4-6 [1960] (АСО Ленинградской филармонии, Евгений Мравинский / Leningrad Philharmonic Orchestra, Evgeny Mravinsky) - 1974/2006/2015 (Classical)


Статистика раздачи [Обновить пиров]
Размер:  2.54 GB   |    Зарегистрирован:  10 месяцев   |    Скачан:  1 раз

Полного источника не было: 4 месяца 18 дней

 
   
 
 
 

[Цитировать]

P. Tchaikovsky
Symphonies Nos. 4-6
Leningrad Philharmonic Orchestra & Evgeny Mravinsky
- Год издания/переиздания диска: 1974/2006/2015
Жанр: Classical
Издатель (лейбл): Deutsche Grammophon
Продолжительность: 02:09:14
Наличие сканов: Sleeve, Digital Booklet- -
Pyotr Ilyich Tchaikovsky (1840-1893)
Symphony No. 4 in F minor, Op. 36
01. 1. Andante sostenuto - Moderato con anima - Moderato assai, quasi Andante - Allegro vivo (18:47)
02. 2. Andantino in modo di canzone (9:18)
03. 3. Scherzo. Pizzicato ostinato - Allegro (5:49)
04. 4. Finale (Allegro con fuoco) (8:07)
Symphony No.5 in E minor, Op.64
05. 1. Andante - Allegro con anima (14:36)
06. 2. Andante cantabile, con alcuna licenza - Moderato con anima (11:58)
07. 3. Valse (Allegro moderato) (5:29)
08. 4. Finale (Andante maestoso - Allegro vivace) (11:12)
Symphony No.6 in B minor, Op.74 - 'Pathétique'
09. 1. Adagio - Allegro non troppo (17:40)
10. 2. Allegro con grazia (8:07)
11. 3. Allegro molto vivace (8:22)
12. 4. Finale (Adagio lamentoso - Andante) (9:49)
-
Leningrad Philharmonic Orchestra
Evgeny Mravinsky, conductor
-
Контейнер: FLAC (*.flac)
Тип рипа: tracks
Разрядность: 24bit / 96kHz
Количество каналов: 2.0
-О релизе
Vitality of performance preserved even half a century after its recording. The recordings of Tchaikovsky’s late symphonies by Evgeny Mravinsky (1903 to 1988) - one of the premier conductors of 20th century Russia - taped by Deutsche Grammophon in 1960, are timelessly famous masterpiece recordings that have always been available as an integral part of the Deutsche Grammophon catalog since the album was released. Mravinsky's interpretation makes the audience feel his own sophisticated style of conducting without losing restraint even as he draws on the traditional form of performance in Russia, such as the majestic and brilliant sounding of brass instruments and perfect discipline of the string ensemble down to the double basses, which can be called his trademark. There are many segments that merit listening to in this album, including the lively pizzicato performance in the third movement of the Fourth Symphony, eruption of strings in the fourth movement of the Fifth Symphony; and the all-out, gut-wrenching climax of the first movement of Pathetique.
Mravinsky went on a long concert tour of England, France, Belgium, Holland, Italy, Switzerland, and Austria from October to November 1960 with the Leningrad Philharmonic Orchestra. At that time, Mravinsky's travel abroad was strictly restricted and he could not tour the West for a long time after his live concerts in Germany, Switzerland, and Austria from May to June 1956. Mravinsky and his orchestra overwhelmed audiences in all the cities that they played with their impregnable ensemble performances centered around their forte in Russian compositions including the Shosotakobich's Eighth Symphony first performed in England (available as a live recording on September 23 by BBC). Taking up that opportunity, Deutsche Grammophon made recordings of Tchaikovsky's three late symphonies. The Fourth Symphony was recorded in London after the performance in Edinburgh, England, which was the first performance venue of the 1960 tour, and the Fifth Symphony and Sixth Symphony “Pathetique” were recorded in Vienna after the last tour performance there. (The recordings of the orchestra and the solo performance of cellist Mstislav Rostropovich of Schumann’s cello concerto were conducted by Gennadi Rozhdestvensky, who accompanied Mravinsky on this tour.)
Deutsche Grammophon made monaural recordings of Tchaikovsky's late symphonies by the Leningrad Philharmonic Orchestra in June 1956 when the orchestra toured Europe. At these 1956 recordings, Mravinsky conducted only the Fifth Symphony and Sixth Symphony “Pathetique” while Kurt Sanderling conducted the Fourth Symphony. One of the reasons why Deutsche Grammophon decided to re-record these symphonies within a short period of four years since the previous recording may be because the company wanted to release stereo albums using stereophonic technology newly introduced in the late 1950s. Another reason may be the company's strong desire to record the Fourth Symphony conducted by Mravinsky, Principal Conductor of the orchestra. Mravinsky made recordings of the late symphonies with Melodia Label, which was a government-controlled public corporation in the former Soviet Union (the Fourth Symphony in 1958, Fifth Symphony in late 1940s, and Sixth Symphony in 1949). The recordings of these symphonies are released through various labels even in Europe. In these Soviet-made recordings, listeners can recognize the already established form of Mravinsky's symphonic interpretation, which was cultivated through a long collaboration between the conductor and the orchestra, who were strongly bonded together since 1938. The sound quality of these recordings however, were obviously inferior compared with the recordings done in the West. Except for the Fourth Symphony, which was dropped from the repertoire by Mravinsky immediately after this 1960 album, CD recordings of live performances of the Fifth Symphony and Sixth Symphony “Pathetique” have been made. There are no other recordings as good as the 1960's recordings made by Deutsche Grammophon in terms of both sound quality and performance. Furthermore, these recordings are top quality even among all recordings made by Mravinsky conducting the Leningrad Philharmonic Orchestra.
Leningrad Philharmonic Orchestra
Evgeny Mravinsky, conductor
Engineered by Harald Baudis
Produced by Karl-Heinz Schneider
Location and recording date:
No.4: 14 Sep. 1960 - 15 Sep. 1960, Brent Town Hall, Wembley, London
No.5: 09 Nov. 1960 - 10 Nov. 1960, Grosser Saal, Musikverein, Wien
No.6: 07 Nov. 1960 - 11 Nov. 1960, Grosser Saal, Musikverein, Wien
Digitally remastered

ОтчётыДинамический диапазон

foobar2000 1.2.2 / Dynamic Range Meter 1.1.1
log date: 2015-05-23 18:32:51
--------------------------------------------------------------------------------
Analyzed: Leningrad Philharmonic Orchestra, Evgeny Mravinsky / Tchaikovsky: Symphonies Nos. 4, 5 & 6
--------------------------------------------------------------------------------
DR Peak RMS Duration Track
--------------------------------------------------------------------------------
DR8 -1.16 dB -15.30 dB 18:47 ?-Symphony No.4 In F Minor, Op.36: 1. Andante sostenuto - Moderato con anima - Moderato assai, quasi Andante - Allegro vivo
DR10 -3.56 dB -20.50 dB 9:18 ?-Symphony No.4 In F Minor, Op.36: 2. Andantino in modo di canzone
DR13 -3.49 dB -23.78 dB 5:49 ?-Symphony No.4 In F Minor, Op.36: 3. Scherzo. Pizzicato ostinato - Allegro
DR9 -0.84 dB -14.93 dB 8:07 ?-Symphony No.4 In F Minor, Op.36: 4. Finale (Allegro con fuoco)
DR9 -1.91 dB -16.10 dB 14:36 ?-Symphony No.5 in E minor, Op.64: 1. Andante - Allegro con anima
DR8 -1.01 dB -15.72 dB 11:58 ?-Symphony No.5 in E minor, Op.64: 2. Andante cantabile, con alcuna licenza - Moderato con anima
DR11 -2.14 dB -19.89 dB 5:29 ?-Symphony No.5 in E minor, Op.64: 3. Valse (Allegro moderato)
DR8 -0.92 dB -13.09 dB 11:12 ?-Symphony No.5 in E minor, Op.64: 4. Finale (Andante maestoso - Allegro vivace)
DR9 -1.99 dB -16.91 dB 17:40 ?-Symphony No.6 in B minor, Op.74 -'Pathétique': 1. Adagio - Allegro non troppo
DR11 -3.43 dB -19.97 dB 8:07 ?-Symphony No.6 in B minor, Op.74 -'Pathétique': 2. Allegro con grazia
DR9 -0.80 dB -14.25 dB 8:22 ?-Symphony No.6 in B minor, Op.74 -'Pathétique': 3. Allegro molto vivace
DR8 -1.80 dB -15.82 dB 9:49 ?-Symphony No.6 in B minor, Op.74 -'Pathétique': 4. Finale (Adagio lamentoso - Andante)
--------------------------------------------------------------------------------
Number of tracks: 12
Official DR value: DR9
Samplerate: 96000 Hz
Channels: 2
Bits per sample: 24
Bitrate: 2795 kbps
Codec: FLAC
================================================================================

Скриншот спектра частот

Доп. информация

При скачивании, если необходимо, переименуйте папку, в которой будет находиться альбомБольшая просьба к скачавшим поддерживать раздачу! Помогайте другим, ведь вам тоже может понадобиться помощь!Не забываем говорить "Спасибо"!Комментарии приветствуются!
[teatrix.ru].t21197.torrent 
Торрент: Зарегистрирован [ 2016-03-20 00:50 ] · 63AA5F2F2F787399856ADF6285C81AA745BECAE9

Скачать .torrent

Скачать

15 KB

Статус: проверено
Скачан: 1 раз
Размер: 2.54 GB
terms.php



Быстрый ответ

Имя:

      
Для отправки сообщений необходимо включить JavaScript
Показать сообщения:    

Текущее время: 20-Янв 16:57

Часовой пояс: UTC + 3


Вы можете начинать темы
Вы можете отвечать на сообщения
Вы не можете редактировать свои сообщения
Вы не можете удалять свои сообщения
Вы не можете голосовать в опросах
Вы не можете прикреплять файлы к сообщениям
Вы можете скачивать файлы