(Classical) [LP] [24/48] W. A. Mozart - Idomeneo / В. А. Моцарт - Идоменей - B. B. C. Symphony Orchestra & Chorus (Conductor Colin Davis) - 1974, FLAC (tracks+.cue)


Статистика раздачи [Обновить пиров]
Размер:  1.57 GB   |    Зарегистрирован:  8 месяцев 21 день   |    Скачан:  0 раз

Полного источника не было: Никогда

 
   
 
 
 

[Цитировать]

W. A. Mozart - Idomeneo / В. А. Моцарт - Идоменей - B. B. C. Symphony Orchestra & Chorus (Conductor Colin Davis)
Жанр: Classical
Носитель: LP
Год выпуска: 1974
Лейбл: Melodya (VSG)
Страна-производитель: USSR
Аудио кодек: FLAC
Тип рипа: tracks+.cue
Формат записи: 32/192
Формат раздачи: 24/48
Продолжительность: 2.46.13 min
Треклист:
A1 Overture
A2 Act I (Part 1)
B Act I (Conclusion)
C Act II (Part 1)
D1 Act II (Conclusion)
D2 Act III (Part 1)
E Act III (Part 2)
F Act III (Conclusion)
Bass Vocals, Baritone Vocals [Arbace] – Stafford Dean
Chorus – BBC Symphony Orchestra
Composed By – Mozart*
Conductor – Colin Davis
Orchestra – BBC Symphony Orchestra
Soprano Vocals [Electra] – Margherita Rinaldi
Soprano Vocals [Ilia] – Pauline Tinsley
Tenor Vocals – Donald Pilley
Tenor Vocals [High Priest] – George Shirley
Tenor Vocals [Idamante] – Léopold Simoneau*
Tenor Vocals [Idomeneo] – Robert Tear
Источник оцифровки: автором раздачи
Код класса состояния винила: NM
Устройство воспроизведения: Электроника ЭП 017С
Головка звукоснимателя: Audio-Technica AT95
Предварительный усилитель: Бриг-001
АЦП: VIA HD audio device
Программа-оцифровщик: Izotope RX 4 Advanced
Обработка: Izotope RX 4 Advanced

Спектр+АЧХ+Уровень записи

DR=15

foobar2000 1.1.10 / Dynamic Range Meter 1.1.1
log date: 2015-05-19 15:34:45
--------------------------------------------------------------------------------
Analyzed: B. B. C. Simphony Orchestra & Chorus (Conductor Colin Davis) / Idomeneo
--------------------------------------------------------------------------------
DR Peak RMS Duration Track
--------------------------------------------------------------------------------
DR14 -7.47 dB -27.25 dB 27:16 ?-Overture / Act I (Part 1)
DR15 -5.47 dB -26.36 dB 28:48 ?-Act I (Conclusion)
DR15 -7.80 dB -29.07 dB 27:27 ?-Act II (Part 1)
DR15 -5.59 dB -27.09 dB 30:52 ?-Act II (Conclusion) / Act III (Part 1)
DR15 -6.71 dB -28.13 dB 25:39 ?-Act III (Part 2)
DR14 -7.29 dB -26.70 dB 26:14 ?-Act III (Conclusion)
--------------------------------------------------------------------------------
Number of tracks: 6
Official DR value: DR15
Samplerate: 48000 Hz
Channels: 2
Bits per sample: 24
Bitrate: 1358 kbps
Codec: FLAC

Front, Booklet & Disc

[teatrix.ru].t21199.torrent 
Торрент: Зарегистрирован [ 2016-03-20 00:50 ] · 41CB9E9F3A922E0EEE0988BF054BFEA7BE96803D

Скачать .torrent

Скачать

17 KB

Статус: проверено
Скачан: 0 раз
Размер: 1.57 GB
terms.php



Быстрый ответ

Имя:

      
Для отправки сообщений необходимо включить JavaScript
Показать сообщения:    

Текущее время: 10-Дек 11:57

Часовой пояс: UTC + 3


Вы можете начинать темы
Вы можете отвечать на сообщения
Вы не можете редактировать свои сообщения
Вы не можете удалять свои сообщения
Вы не можете голосовать в опросах
Вы не можете прикреплять файлы к сообщениям
Вы можете скачивать файлы