[TR24][OF] J.S. Bach - Sonatas & Partitas for Solo Violin, BWV 1004-1006 - Isabelle Faust - 2010 (Classical / Violin)

DL-List and Torrent activity [Update пиров]
Size:  1.14 GB   |    Registered:  7 months 3 days   |    Completed:  0 times

Seeder not seen: Never



J.S. Bach
Sonatas & Partitas
BWV 1004-1006
Isabelle Faust
-Год издания: 2010 | Жанр: Classical / Violin
Издатель: Harmonia Mundi | Продолжительность: 01:08:56
Наличие сканов: Sleeve, Digital Booklet- -Isabelle Faust, violin Stradivarius
Recorded: September 2009, Teldex Studio Berlin-Контейнер: FLAC (*.flac) | Тип рипа: tracks
Разрядность: 24bit / 96kHz | Количество каналов: 2.0
Johann Sebastian Bach (1685-1750)
Partita II BWV 1004 in D minor
01.I. Allemanda (5:37)
02. II. Corrente (2:30)
03. III. Sarabanda (4:22)
04. IV. Giga (3:35)
05. V. Ciaccona (12:33)
Sonata III BWV 1005 in C major
06. I. Adagio (4:44)
07. II. Fuga (9:46)
08. III. Largo (2:55)
09. IV. Allegro assai (4:46)
Partita III BWV 1006 in E major
10. I. Preludio (3:40)
11. II. Loure (3:39)
12. III. Gavotte en Rondeau (3:08)
13. IV. Menuet I - V. Menuet II (4:48)
14. VI. Bourée (1:18)
15. VII. Gigue (1:35)

О релизе

Beauty and perfection
Isabelle Faust has gone back to the original manuscript sources to offer us her versions of these iconic masterpieces of the violin repertoire. In Bach s time, music for solo instruments was still little explored territory, and his Sonatas and Partitas immediately established themselves as a benchmark, technically challenging and brimming with creativity.
"What does it take to justify another new recording of Bach's solo violin Sonatas and Partitas? A performance that refines other approaches? An exciting and idiosyncratic new angle that will throw all of the others into question? Or simply the realization that this music has not yet given up all of its secrets.
I heard Jennifer Koh play BWV 1004 'live' two months ago in Amherst College's Buckley Recital Hall, the first time I'd heard this music in a long time, and was first surprised and then transported: I thought I had used this work up. I announced to myself and the person next to me, who agreed, that this was the most moving performance of the work I'd ever heard. I couldn't say why or what caused it to stand apart. Just that it made time stop and the world go away, the usual report we give about such experiences. A 'live' performance can do that sometimes - and there are lots of factors involved, not least that a musician is more likely to just let it go, transcend herself, in a performance that's just for an occasion, not being recorded for all time.
I sought out Isabelle Faust's new Bach release because Ms. Koh had put me back on the Bach Sonata and Partita hunt again, which is comparable to the Bach Cello Suites hunt and the Goldberg Variations hunt. I daringly sought to make the magic recur. I like what Faust has done with Bartok and more recently with Beethoven. I had no particular expectations for her Bach, but it wouldn't have mattered if I had. Because, in a distinctly different but equally compelling way, Faust's recorded performance matched the power of Koh's 'live' one, throwing aside any expectations I might have had. Where Koh had passion and forward momentum, Faust has an extraordinary combination of beauty and control. She is 'classical' in the best sense. If there is anything obvious going on in this recording that can be singled out, it may be the slightly slower tempos, which seem to give phrases, even individual notes, emotionally longer lives, time to take and hold us. Bach almost always benefits from deliberate rather than hurried or even uneven tempos. What this kind of approach sometimes gives away moment by moment in immediate expressiveness, it more than gains back in overall accumulated power. And the power is truly here. And so I captured the very thing we hope for in such hunts, the sense of having heard something again for the first time. Twice in two months.
There is no need to itemize Faust's individual performances of the three works here. Rather, I'll just urge you not to miss this release and to wait impatiently for its companion CD to complete the oeuvre." (Bob Neill, Positive Feedback)
"Violinist Isabelle Faust says that the first thing that strikes you as you look at Bach's solo violin manuscripts is the "calligraphic beauty and perfection," opening up "a universe of pure aesthetics." And, while starting with the manuscript may sound scholarly, it led to the creation of a highly personal account of these pieces, as any performance of them ultimately must be. Full-bodied at times, delicate at others, and always with a seemingly inevitable sense of pace, this recording is not to be missed."

ОтчётыДинамический диапазон

foobar2000 1.2.2 / Dynamic Range Meter 1.1.1
log date: 2015-05-19 19:47:46
Analyzed: Isabelle Faust / JS Bach: Sonatas & Partitas BWV1004-6
DR Peak RMS Duration Track
DR14 -2.02 dB -24.53 dB 5:37 ?-Partita II BWV 1004 in D minor: I. Allemanda
DR14 -5.42 dB -22.90 dB 2:30 ?-Partita II BWV 1004 in D minor: II. Corrente
DR13 -5.18 dB -23.14 dB 4:22 ?-Partita II BWV 1004 in D minor: III. Sarabanda
DR15 -2.73 dB -21.20 dB 3:35 ?-Partita II BWV 1004 in D minor: IV. Giga
DR15 -0.10 dB -20.23 dB 12:33 ?-Partita II BWV 1004 in D minor: V. Ciaccona
DR12 -7.58 dB -24.34 dB 4:44 ?-Sonata III BWV 1005 in C major: I. Adagio
DR14 -1.88 dB -20.11 dB 9:46 ?-Sonata III BWV 1005 in C major: II. Fuga
DR12 -9.97 dB -27.37 dB 2:55 ?-Sonata III BWV 1005 in C major: III. Largo
DR14 -3.80 dB -21.29 dB 4:46 ?-Sonata III BWV 1005 in C major: IV. Allegro assai
DR12 -3.31 dB -19.01 dB 3:40 ?-Partita III BWV 1006 in E major: I. Preludio
DR14 -7.17 dB -25.48 dB 3:39 ?-Partita III BWV 1006 in E major: II. Loure
DR15 -0.61 dB -21.06 dB 3:08 ?-Partita III BWV 1006 in E major: III. Gavotte en Rondeau
DR15 -4.73 dB -25.10 dB 4:48 ?-Partita III BWV 1006 in E major: IV. Menuet I - V. Menuet II
DR14 -2.29 dB -20.92 dB 1:18 ?-Partita III BWV 1006 in E major: VI. Bourée
DR14 -4.29 dB -22.78 dB 1:35 ?-Partita III BWV 1006 in E major: VII. Gigue
Number of tracks: 15
Official DR value: DR14
Samplerate: 96000 Hz
Channels: 2
Bits per sample: 24
Bitrate: 2335 kbps
Codec: FLAC

Скриншот спектра частот

Доп. информация

При скачивании, если необходимо, переименуйте папку, в которой будет находиться альбомБольшая просьба к скачавшим поддерживать раздачу! Помогайте другим, ведь вам тоже может понадобиться помощь!Не забываем говорить "Спасибо"!Комментарии приветствуются!
Isabelle Faust Hi-Res
Torrent: Registered [ 2016-03-20 00:50 ] · 6717C13226D0DB3C1ABB9B9B994B402FD2768BB2

Download .torrent


13 KB

Status: checked
Completed: 0 times
Size: 1.14 GB

Quick Reply


Heads necessary to send messages to enable JavaScript
Display posts:    

Current time is: 23-Oct 20:54

All times are UTC + 3

You can post new topics in this forum
You can reply to topics in this forum
You cannot edit your posts in this forum
You cannot delete your posts in this forum
You cannot vote in polls in this forum
You cannot attach files in this forum
You can download files in this forum