[TR24][SM][OF] Arvo Part - Tintinnabuli - The Tallis Scholars - 2015 (Classical)


Статистика раздачи [Обновить пиров]
Размер:  1024 MB   |    Зарегистрирован:  8 месяцев 14 дней   |    Скачан:  0 раз

Полного источника не было: Никогда

 
   
 
 
 

[Цитировать]

Arvo Pärt (b1935)
Формат записи/Источник записи: [TR24][SM][OF]
Наличие водяных знаков: Нет
Издание: CDGIM 049
Год издания/переиздания диска: 2015
Жанр: Classical
Издатель(лейбл): © Gimell Records
Продолжительность: 01:07:02
Наличие сканов в содержимом раздачи: Да
Контейнер: FLAC (*.flac)
Тип рипа: tracks
Разрядность: 24/96
Формат: WAV (flac.ape.wv)
Количество каналов: 2.0
Источник (релизер): http://www.gimell.com/recording-arvo-part---tintinnabuli.aspx

Треклист

Sieben Magnificat-Antiphonen
1. O Weisheit 1.27
2. O Adonai 2.28
3. O Spross aus Isais Wurzel 1.00
4. O Schlüssel Davids 2.01
5. O Morgenstern 2.02
6. O König aller Völker 1.10
7. O Immanuel 3.17
8. Magnificat 7.13
9. Which Was the Son of ... 7.37
Nunc dimittis
10. Nunc dimittis 1.44
11. Quia viderunt oculi mei 2.47
12. Gloria 1.18
The Woman with the Alabaster Box
13. Now when Jesus was in Bethany 2.27
14. Why trouble ye the woman? 1.16
15. Verily I say unto you 1.45
Tribute to Caesar
16. Then went the Pharisees 3.42
17. And they brought unto him a penny 2.47
18. I Am the True Vine 7.10
Triodion
19. Introduction In the name of the Father 0.23
20. Ode I We do homage 3.34
21. Ode II Unto the Birth-giver of God 4.37
22. Ode III A rule of faith 4.12
23. Coda Glory to the Father 1.01

Состав

The Tallis Scholars
Directed by Peter Phillips

Dynamic Range Meter

foobar2000 1.2.6 / Dynamic Range Meter 1.1.1
log date: 2015-05-19 23:12:41
--------------------------------------------------------------------------------
Analyzed: The Tallis Scholars / Arvo Pärt: Tintinnabuli
--------------------------------------------------------------------------------
DR Peak RMS Duration Track
--------------------------------------------------------------------------------
DR12 -15.09 dB -32.64 dB 1:27 01-Sieben Magnificat-Antiphonen: 1. O Weisheit
DR13 -18.93 dB -38.42 dB 2:29 02-Sieben Magnificat-Antiphonen: 2. O Adonai
DR10 -4.76 dB -23.11 dB 1:00 03-Sieben Magnificat-Antiphonen: 3. O Spross aus Isais Wurzel
DR10 -0.24 dB -16.90 dB 2:02 04-Sieben Magnificat-Antiphonen: 4. O Schlüssel Davids
DR13 -9.22 dB -31.79 dB 2:03 05-Sieben Magnificat-Antiphonen: 5. O Morgenstern
DR11 -8.67 dB -27.81 dB 1:10 06-Sieben Magnificat-Antiphonen: 6. O König aller Völker
DR13 -1.62 dB -21.92 dB 3:17 07-Sieben Magnificat-Antiphonen: 7. O Immanuel
DR16 -0.24 dB -24.41 dB 7:13 08-Magnificat
DR17 -0.27 dB -26.37 dB 7:37 09-Which Was the Son of ...
DR10 -17.31 dB -37.25 dB 1:44 10-Nunc dimittis: 1. Nunc dimittis
DR13 -0.81 dB -23.43 dB 2:47 11-Nunc dimittis: 2. Quia viderunt oculi mei
DR12 -17.53 dB -38.52 dB 1:18 12-Nunc dimittis: 3. Gloria
DR13 -16.72 dB -35.48 dB 2:27 13-The Woman with the Alabaster Box: 1. Now when Jesus was in Bethany
DR12 -12.80 dB -31.71 dB 1:16 14-The Woman with the Alabaster Box: 2. Why trouble ye the woman?
DR12 -11.76 dB -32.10 dB 1:46 15-The Woman with the Alabaster Box: 3. Verily I say unto you
DR14 -5.20 dB -27.49 dB 3:42 16-Tribute to Caesar: 1. Then went the Pharisees
DR14 -3.64 dB -27.53 dB 2:48 17-Tribute to Caesar: 2. And they brought unto him a penny
DR15 -7.60 dB -33.30 dB 7:10 18-I Am the True Vine
DR10 -25.26 dB -42.46 dB 0:23 19-Triodion: 1. Introduction (In the name of the Father)
DR14 -3.24 dB -26.18 dB 3:34 20-Triodion: 2. Ode I (We do homage to Thy pure image)
DR15 -10.64 dB -34.13 dB 4:37 21-Triodion: 3. Ode II (Unto the Birth-giver of God)
DR14 -1.05 dB -25.29 dB 4:12 22-Triodion: 4. Ode III (A rule of faith)
DR11 -28.04 dB -45.29 dB 0:59 23-Triodion: 5. Coda (Glory to the Father)
--------------------------------------------------------------------------------
Number of tracks: 23
Official DR value: DR13
Samplerate: 96000 Hz
Channels: 2
Bits per sample: 24
Bitrate: 1895 kbps
Codec: FLAC
================================================================================
[teatrix.ru].t21202.torrent 
Торрент: Зарегистрирован [ 2016-03-20 00:50 ] · DD6FA47BDB7B7643182B75EB181F329EF11FD9A6

Скачать .torrent

Скачать

23 KB

Статус: проверено
Скачан: 0 раз
Размер: 1024 MB
terms.php



Быстрый ответ

Имя:

      
Для отправки сообщений необходимо включить JavaScript
Показать сообщения:    

Текущее время: 03-Дек 14:35

Часовой пояс: UTC + 3


Вы можете начинать темы
Вы можете отвечать на сообщения
Вы не можете редактировать свои сообщения
Вы не можете удалять свои сообщения
Вы не можете голосовать в опросах
Вы не можете прикреплять файлы к сообщениям
Вы можете скачивать файлы