[TR24][OF] J.S. Bach - Sonatas & Partitas for Solo Violin, BWV 1001-1003 - Isabelle Faust - 2012 (Classical / Violin)


Статистика раздачи [Обновить пиров]
Размер:  1.14 GB   |    Зарегистрирован:  8 месяцев 18 дней   |    Скачан:  0 раз

Полного источника не было: Никогда

 
   
 
 
 

[Цитировать]

J.S. Bach
Sonatas & Partitas
BWV 1001-1003
Isabelle Faust
-Год издания: 2012 | Жанр: Classical / Violin
Издатель: Harmonia Mundi | Продолжительность: 01:00:20
Наличие сканов: Sleeve, Digital Booklet- -Isabelle Faust, violin Stradivarius
Recorded: August-September 2011, Teldex Studio Berlin-Контейнер: FLAC (*.flac) | Тип рипа: tracks
Разрядность: 24bit / 96kHz | Количество каналов: 2.0
-Треклист
Johann Sebastian Bach (1685-1750)
Sonata I BWV 1001 in G Minor
01.I. Adagio (3:50)
02. II. Fuga. Allegro (4:33)
03. III. Siciliana (2:31)
04. IV. Presto (3:11)
Partita I BWV 1002 in B Minor
05. I. Allemanda (4:52)
06. II. Double (2:19)
07. III. Corrente (2:58)
08. IV. Double (3:11)
09. V. Sarabande (3:00)
10. VI. Double (2:10)
11. VII. Tempo di Borea (2:55)
12. VIII. Double (3:10)
Sonata II BWV 1003 in A Minor
13. I. Grave (4:10)
14. II. Fuga (7:55)
15. III. Andante (4:07)
16. IV. Allegro (5:29)

О релизе


Outstanding and beautiful
Isabelle Faust hit the Classical charts earlier this year with her mesmerising recording of Beethoven and Berg with Claudio Abbado. She followed up with some welcome live appearances here in the UK, which included the Brahms' concerto at the Barbican with frequent collaborators Jiri Belohlavek and the BBCSO.
Isabelle's recordings have won prizes since her harmonia mundi debut in 1997 which earned her a Gramophone Young Artist Award. In 2010 her Beethoven Violin Sonatas with Alexander Melnikov also won. The afore-mentioned Beethoven-Berg has been awarded Gramophone Recording of the Month, Daily Telegraph Classical CD of the Week, Times CD of the Week, Classic FM Disc of the Week, Sunday Times CD of the Week, BBC Music Magazine Recording of the Month and CD Review Disc of the Week.
Now she returns to J.S. Bach for a second volume of what Andrew McGregor described in such glowing terms: 'there’s some of the best-judged ornamentation I’ve heard in repeated passages. The recording is utterly self-effacing, in just the right way, and my only complaint is that the job’s half done...I’m impatient for the rest! Harmonia Mundi is the label, it’s released this coming Monday, and the notes are excellent as well.' CD Review, BBC Radio 3, 27 March 2010
Isabelle is shortlisted for the Gramophone Best Artist Award 2012. She returns to Wigmore Hall in October with Alexander Melnikov and Jean-Guihen Queyras.
“Faust’s playing of these extraordinary pieces of surpassing musical interest and lyrical content sits comfortably at the uppermost echelons of the league table … Faust is at her heart a poetic player with a warm sound, a tightly controlled vibrato and an athletic technique … A rewardingly stimulating release, beautifully recorded.” (International Record Review)
“She creates a feeling that, although there is a deep musical understanding behind her performance in which she has quiet confidence, there is no overarching ego trying to make the intricate counterpoint bend to her will.” (Gramophone)
“In some of the most challenging violin music ever written, she displays masterly technique...Despite some daring tempos, Faust retains a totally secure pulse through all the technical contortions. She places admirable faith in Bach's fair copy of the score...[and] in alluringly sensitive in gentler movement.” (BBC Music Magazin)

ОтчётыДинамический диапазон

foobar2000 1.2.2 / Dynamic Range Meter 1.1.1
log date: 2015-05-19 21:48:23
--------------------------------------------------------------------------------
Analyzed: Isabelle Faust / Bach: Sonatas & Partitas BWV 1001-1003
--------------------------------------------------------------------------------
DR Peak RMS Duration Track
--------------------------------------------------------------------------------
DR14 -4.09 dB -22.74 dB 3:50 ?-Sonata I BWV 1001 in G Minor: I. Adagio
DR14 -0.11 dB -18.13 dB 4:33 ?-Sonata I BWV 1001 in G Minor: II. Fuga. Allegro
DR13 -6.23 dB -24.54 dB 2:31 ?-Sonata I BWV 1001 in G Minor: III. Siciliana
DR14 -0.09 dB -21.81 dB 3:11 ?-Sonata I BWV 1001 in G Minor: IV. Presto
DR14 -1.67 dB -19.35 dB 4:52 ?-Partita I BWV 1002 in B Minor: I. Allemanda
DR14 -12.12 dB -30.37 dB 2:19 ?-Partita I BWV 1002 in B Minor: II. Double
DR15 -2.92 dB -20.84 dB 2:58 ?-Partita I BWV 1002 in B Minor: III. Corrente
DR16 -4.81 dB -23.11 dB 3:11 ?-Partita I BWV 1002 in B Minor: IV. Double
DR15 -0.16 dB -20.64 dB 3:00 ?-Partita I BWV 1002 in B Minor: V. Sarabande
DR14 -10.91 dB -29.14 dB 2:10 ?-Partita I BWV 1002 in B Minor: VI. Double
DR14 -2.55 dB -20.62 dB 2:55 ?-Partita I BWV 1002 in B Minor: VII. Tempo di Borea
DR13 -2.66 dB -19.51 dB 3:10 ?-Partita I BWV 1002 In B Minor: VIII. Double
DR13 -0.92 dB -20.52 dB 4:10 ?-Sonata II BWV 1003 in A Minor: I. Grave
DR13 -0.08 dB -16.56 dB 7:55 ?-Sonata II BWV 1003 in A Minor: II. Fuga
DR13 -6.27 dB -24.29 dB 4:07 ?-Sonata II BWV 1003 in A Minor: III. Andante
DR15 -0.08 dB -18.50 dB 5:29 ?-Sonata II BWV 1003 in A Minor: IV. Allegro
--------------------------------------------------------------------------------
Number of tracks: 16
Official DR value: DR14
Samplerate: 96000 Hz
Channels: 2
Bits per sample: 24
Bitrate: 2716 kbps
Codec: FLAC
================================================================================

Скриншот спектра частот

Доп. информация

При скачивании, если необходимо, переименуйте папку, в которой будет находиться альбомБольшая просьба к скачавшим поддерживать раздачу! Помогайте другим, ведь вам тоже может понадобиться помощь!Не забываем говорить "Спасибо"!Комментарии приветствуются!
Isabelle Faust Hi-Res
[teatrix.ru].t21203.torrent 
Торрент: Зарегистрирован [ 2016-03-20 00:50 ] · 3688E0E3D33089669E6820802B6377F46B11E066

Скачать .torrent

Скачать

13 KB

Статус: проверено
Скачан: 0 раз
Размер: 1.14 GB
terms.php



Быстрый ответ

Имя:

      
Для отправки сообщений необходимо включить JavaScript
Показать сообщения:    

Текущее время: 07-Дек 11:36

Часовой пояс: UTC + 3


Вы можете начинать темы
Вы можете отвечать на сообщения
Вы не можете редактировать свои сообщения
Вы не можете удалять свои сообщения
Вы не можете голосовать в опросах
Вы не можете прикреплять файлы к сообщениям
Вы можете скачивать файлы