[TR24][OF] Alison Balsom (feat. Scottish Ensemble) - Italian Concertos (Antonio Vivaldi, Benedetto Marcello, Tomaso Albinoni, Domenico Cimarosa, Giuseppe Tartini) - 2010/2014 (Classical)


Статистика раздачи [Обновить пиров]
Размер:  594 MB   |    Зарегистрирован:  8 месяцев 15 дней   |    Скачан:  0 раз

Полного источника не было: Никогда

 
   
 
 
 

[Цитировать]

Alison Balsom
Italian Concertos
-Год издания/переиздания диска: 2010/2014
Жанр: Classical | Издатель (лейбл): Warner Classics
Продолжительность: 01:01:46 | Наличие сканов: Sleeve- -Alison Balsom, trumpet
Scottish Ensemble-Контейнер: FLAC (*.flac) | Тип рипа: tracks
Разрядность: 24bit /44.1kHz | Количество каналов: 2.0
-Треклист
Antonio Vivaldi (1678-1741)
Violin Concerto in A minor RV 356
01.I. Allegro (2:37)
02. II. Largo (2:34)
03. III. Presto (2:35)
Benedetto Marcello (1686-1739)
Oboe Concerto in C minor
04. I. Andante spicato (3:11)
05. II. Adagio (4:25)
06. III. Presto (3:05)
Tomaso Albinoni (1671-1751)
Oboe Concerto in B flat major Op.7 No.3
07. I. Allegro (2:38)
08. II. Adagio (2:35)
09. III. Allegro (2:11)
Domenico Cimarosa (1749-1801)
Oboe Concerto in C minor
10. I. Introduzione (Larghetto) (2:40)
11. II. Allegro (2:08)
12. III. Siciliana (2:24)
13. IV Allegro giusto (2:38)
Antonio Vivaldi
Violin Concerto in G major RV 310
14. I. Allegro (2:13)
15. II. Largo (3:04)
16. III. Allegro (2:32)
Giuseppe Tartini (1692-1770)
arr. Wallace & Wrigth
Trumpet Concerto in D major D53
17. I. Allegro (3:52)
18. II. Andante (2:53)
19. III. Allegro grazioso (3:04)
Tomaso Albinoni
Sonata da Chiesa in D minor
20. I. Adagio (2:24)
21. II. Allegro (2:03)
22. III. Largo (1:56)
23. IV. Allegro (2:04)

О релизе


Breathtaking
She makes the trumpet sing with an irresistible exuberance and eloquence. With the human voice a particular inspiration in the music of Italy, the words of The Times have a special resonance for Alison Balsom in these works composed or inspired by Italian composers of the 18th century. This collection provides an apt vehicle for the award-winning trumpeter's characteristic brilliance and grace.
Following the popular and critical international success of her Haydn and Hummel concertos recording, Alison Balsom has recorded a programme of Italian Baroque concertos. The album has quickly garnered critics’ praise: “The fast movements are played with sparkling ease and technical brilliance. The slow movement [Balsom] forms delicately, tenderly, yet without denying she’s playing a brass instrument.” (MDR Figaro)
After the release of Caprice in 2006, Gramophone wrote, “It's not often that a young musician appears on the scene abundantly blessed with everything both an A&R and marketing person could dream of, but the young British trumpeter Alison Balsom fulfils just such a dream. She's a musician of prodigious talent with an inquisitive, fresh approach to music-making. She is connected to her public, and rewards their attention with playing of a winning ease and fluency. She has an engaging personality … and the intelligence to take her burgeoning career well in her stride.” In this new recording, Balsom, the 2009 Classical BRIT Artist of the Year, plays popular concertos originally composed for the violin or oboe by Vivaldi, Tartini, B. Marcello, Albinoni and Cimarosa, accompanied by the Scottish Ensemble.
“The days are long gone when blowing a brass instrument was a male preserve. Even so, the young trumpeter Alison Balsom remains a singular figure. It’s not that she's long and blonde; it's the roar of her talent that makes her stand out, along with her knack for breaking down barriers and making the trumpet so much more than a toot machine.” (The Times)

ОтчётыДинамический диапазон

foobar2000 1.2.2 / Dynamic Range Meter 1.1.1
log date: 2015-05-14 13:14:53
--------------------------------------------------------------------------------
Analyzed: Alison Balsom, Scottish Ensemble / Italian Concertos
--------------------------------------------------------------------------------
DR Peak RMS Duration Track
--------------------------------------------------------------------------------
DR14 -0.13 dB -18.23 dB 2:37 ?-Violin Concerto in A minor RV 356 - I. Allegro
DR11 -6.83 dB -22.50 dB 2:34 ?-Violin Concerto in A minor RV 356 - II. Largo
DR13 -1.26 dB -18.37 dB 2:35 ?-Violin Concerto in A minor RV 356 - III. Presto
DR12 -4.37 dB -20.24 dB 3:11 ?-Oboe Concerto in C minor - I. Andante spicato
DR12 -6.48 dB -22.76 dB 4:25 ?-Oboe Concerto in C minor - II. Adagio
DR13 -0.43 dB -18.80 dB 3:05 ?-Oboe Concerto in C minor - III. Presto
DR13 -0.11 dB -17.95 dB 2:38 ?-Oboe Concerto in B flat major Op.7 No.3 - I. Allegro
DR12 -5.10 dB -21.57 dB 2:35 ?-Oboe Concerto in B flat major Op.7 No.3 - II. Adagio
DR13 -0.66 dB -19.38 dB 2:11 ?-Oboe Concerto in B flat major Op.7 No.3 - III. Allegro
DR11 -0.38 dB -19.18 dB 2:40 ?-Oboe Concerto in C minor - I. Introduzione (Larghetto)
DR13 -1.73 dB -19.98 dB 2:08 ?-Oboe Concerto in C minor - II. Allegro
DR12 -4.99 dB -21.84 dB 2:24 ?-Oboe Concerto in C minor - III. Siciliana
DR14 -0.34 dB -18.27 dB 2:38 ?-Oboe Concerto in C minor - IV Allegro giusto
DR13 -1.40 dB -19.27 dB 2:13 ?-Violin Concerto in G major RV 310 - I. Allegro
DR13 -5.07 dB -22.64 dB 3:04 ?-Violin Concerto in G major RV 310 - II. Largo
DR12 -0.70 dB -18.70 dB 2:32 ?-Violin Concerto in G major RV 310 - III. Allegro
DR13 -0.16 dB -17.78 dB 3:52 ?-Trumpet Concerto in D major D53 - I. Allegro
DR12 -4.24 dB -22.09 dB 2:53 ?-Trumpet Concerto in D major D53 - II. Andante
DR12 -0.51 dB -18.53 dB 3:04 ?-Trumpet Concerto in D major D53 - III. Allegro grazioso
DR11 -3.96 dB -19.13 dB 2:24 ?-Sonata da Chiesa in D minor - I. Adagio
DR13 -1.69 dB -17.67 dB 2:03 ?-Sonata da Chiesa in D minor - II. Allegro
DR12 -1.93 dB -20.24 dB 1:56 ?-Sonata da Chiesa in D minor - III. Largo
DR12 -0.16 dB -18.08 dB 2:04 ?-Sonata da Chiesa in D minor - IV. Allegro
--------------------------------------------------------------------------------
Number of tracks: 23
Official DR value: DR12
Samplerate: 44100 Hz
Channels: 2
Bits per sample: 24
Bitrate: 1305 kbps
Codec: FLAC
================================================================================

Скриншот спектра частот

Доп. информация

При скачивании, если необходимо, переименуйте папку, в которой будет находиться альбомБольшая просьба к скачавшим поддерживать раздачу! Помогайте другим, ведь вам тоже может понадобиться помощь!Не забываем говорить "Спасибо"!Комментарии приветствуются!
Alison Balsom Hi-Res
[teatrix.ru].t21207.torrent 
Торрент: Зарегистрирован [ 2016-03-20 00:50 ] · 5EE06B7C5CEFB6BAFC4CCE937AD2E47DA62F7C3E

Скачать .torrent

Скачать

14 KB

Статус: проверено
Скачан: 0 раз
Размер: 594 MB
terms.php



Быстрый ответ

Имя:

      
Для отправки сообщений необходимо включить JavaScript
Показать сообщения:    

Текущее время: 04-Дек 13:13

Часовой пояс: UTC + 3


Вы можете начинать темы
Вы можете отвечать на сообщения
Вы не можете редактировать свои сообщения
Вы не можете удалять свои сообщения
Вы не можете голосовать в опросах
Вы не можете прикреплять файлы к сообщениям
Вы можете скачивать файлы