[TR24][OF] Alison Balsom (feat. Scottish Ensemble, BBC Scottish Symphony Orchestra, Lawrence Renes) - Seraph: Trumpet Concertos (James MacMillan, Toru Takemitsu, Alexander Arutiunian/Александр Арутюнян, Bernd Alois Zimmermann) - 2012/2014 (Classical)

DL-List and Torrent activity [Update пиров]
Size:  466 MB   |    Registered:  7 months 5 days   |    Completed:  0 times

Seeder not seen: Never



Alison Balsom
-Год издания/переиздания диска: 2012/2014
Жанр: Classical | Издатель (лейбл): Warner Classics
Продолжительность: 00:56:05 | Сканы: Sleeve, Digital Booklet- -Alison Balsom, trumpet
Scottish Ensemble (MacMillan)
Jonathan Morton, leader
BBC Scottish Symphony Orchestra (Arutiunian & Zimmermann)
Lawrence Renes, conductor-Контейнер: FLAC (*.flac) | Тип рипа: tracks
Разрядность: 24bit /44.1kHz | Количество каналов: 2.0
James MacMillan (b.1959)
Seraph for trumpet and string orchestra
01.I (4:41)
02. II. Adagio (5:11)
03. III. Marcato e ritmico (5:30)
Toru Takemitsu (1930-1996)
Paths for solo trumpet
04. Paths (6:25)
Alexander Grigori Arutiunian (1920-2012)
Trumpet Concerto in A flat major
05. I. Andante - Allegro Energico (8:16)
06. II. Meno Mosso (3:24)
07. III. Tempo I (3:35)
arr. Tom Poster and Alison Balsom
08. Nobody Knows (4:28)
Bernd Alois Zimmermann (1918-1970)
Trumpet Concerto in C major 'Nobody Knows De Trouble I See'
for trumpet and chamber orchestra
09. Trumpet Concerto in C major (14:35)

О релизе

Heavenly good
Alison Balsom is the world’s preeminent female classical trumpeter. She is an unique and independent artist who have broken through to the mainstream whilst retaining her integrity and core musical values. Exceptional talent, a glamorous stage presence and a witty and engaging personality make Alison one of the most exciting and bankable artists in the core classical world today.
Alison’s new recording of modern and contemporary repertoire marks an important artistic stepping stone in her career. This labour of love features the world premiere recording of Seraph, James MacMillan’s trumpet concerto written for Alison, works by Takemitsu and Zimmermann and includes her long-awaited recording of the ever popular Arutunian Trumpet Concerto.
“Seraph may not quite be another Veni, Veni Emmanuel...But it's still very enjoyable, from the Haydn-tinged jollity of the first movement, through a mysterious and lyrical slow movement to the rousing finale...Balsom is a superb advocate, combining technical brilliance with penetrating musicianship - a true poet of the trumpet as well as a formidable athlete.” (BBC Music Magazine)
„Seraph“ is concise and communicative, and, as expected from Macmillan, approachable. Balsom gets its (one hopes) long career off to a strong start...[in the Zimmermann] Balsom is in her element. She advocates for this music with passion and dignity, and the strength of her technique allows her to focus on communicating the work's emotional content...this disc speaks well of her continuing maturation as an artist.” (International Record Review)

ОтчётыДинамический диапазон

foobar2000 1.2.2 / Dynamic Range Meter 1.1.1
log date: 2015-05-14 02:23:58
Analyzed: Alison Balsom, Lawrence Renes, BBC Scottish Symphony Orchestra / Seraph (1-4)
Alison Balsom, Scottish Ensemble / Seraph (5-7)
Alison Balsom / Seraph (8-9)
DR Peak RMS Duration Track
DR15 -0.39 dB -21.80 dB 8:16 ?-Trumpet Concerto in A flat major - I. Andante - Allegro Energico
DR11 -17.87 dB -34.46 dB 3:24 ?-Trumpet Concerto in A flat major - II. Meno Mosso
DR16 -0.46 dB -22.32 dB 3:35 ?-Trumpet Concerto in A flat major - III. Tempo I
DR15 -1.87 dB -23.36 dB 14:35 ?-Trumpet Concerto in C major
DR13 -3.56 dB -22.70 dB 4:41 ?-Seraph - I
DR13 -10.64 dB -30.04 dB 5:11 ?-Seraph - II. Adagio
DR12 -6.29 dB -22.71 dB 5:30 ?-Seraph - III. Marcato e ritmico
DR14 -6.37 dB -28.23 dB 6:25 ?-Paths
DR13 -13.90 dB -33.13 dB 4:28 ?-Nobody Knows
Number of tracks: 9
Official DR value: DR14
Samplerate: 44100 Hz
Channels: 2
Bits per sample: 24
Bitrate: 970 kbps
Codec: FLAC

Скриншот спектра частот

Доп. информация

При скачивании, если необходимо, переименуйте папку, в которой будет находиться альбомБольшая просьба к скачавшим поддерживать раздачу! Помогайте другим, ведь вам тоже может понадобиться помощь!Не забываем говорить "Спасибо"!Комментарии приветствуются!
Alison Balsom Hi-Res
Torrent: Registered [ 2016-03-20 00:50 ] · B57047DA3740A5B5CFC6FA54A1986E7D09B9D5B3

Download .torrent


19 KB

Status: checked
Completed: 0 times
Size: 466 MB

Quick Reply


Heads necessary to send messages to enable JavaScript
Display posts:    

Current time is: 25-Oct 06:10

All times are UTC + 3

You can post new topics in this forum
You can reply to topics in this forum
You cannot edit your posts in this forum
You cannot delete your posts in this forum
You cannot vote in polls in this forum
You cannot attach files in this forum
You can download files in this forum