(Choral / Sacred) Mendelssohn - Complete Choral Works (Chamber Choir of Europe / Wurttembergische Philharmonie Reutlingen, Nicol Matt) - 2002, APE (image+.cue) lossless


Статистика раздачи [Обновить пиров]
Размер:  2.33 GB   |    Зарегистрирован:  8 месяцев 19 дней   |    Скачан:  0 раз

Полного источника не было: Никогда

 
   
 
 
 

[Цитировать]

Felix Mendelssohn-Bartholdi - Complete Choral Works
Жанр: Choral / Sacred
Страна-производитель диска: EU
Год издания диска: 2002
Издатель (лейбл): Brilliant
Номер по каталогу: 99997
Дата записи: 2002
Аудиокодек: APE
Тип рипа: image+.cue
Битрейт аудио: lossless
Источник: собственный рип
Наличие сканов в содержимом раздачи: да
Треклист:

CD1 Psalmkantaten Nos. 42-95-98

Psalm 42 „Wie der Hirsch schreit“, Op. 42
1. Coro
2. Aria
3. Recitativo/Arie
4. Coro
5. Recitativo
6. Quintetto
7. Schlusschor
Psalm 95 „Kommt, lasst uns anbeten“, Op. 46
8. Coro
9. Coro
10. Duetto
11. Coro
12. Coro
Psalm 98 „Singet dem Herrn“, Op. 91
13. Allegro
14. Andante lento
15. Andante con moto
16. Allegro

CD2 Psalmkantaten NOS. 114-115 and Choralkantaten Nos. 1-3

Psalm 114 „Da Israel aus Ägypten zog“, Op. 51
1. Allegro con moto maestoso
2. Allegro moderato
3. Grave
4. Con moto
Psalm 115 „Non nobis Domine“, Op. 31
5. Chor
6. Duett mit Chor
7. Arioso
8. Chor
Choralkantaten
Choralkantate, No. 1. Ach Gott, vom Himmel sieh darein
9. I. Coro
10. II. Recitativo
11. III. Aria
12. IV. Choral
13. Choralkantate, No.2. Christe, du Lamm Gottes
14. Choralkantate, No.3. Jesu, meine Freude

CD3 Choralkantaten Nos. 4-8

Choralkantate No. 4. O Haupt voll Blut und Wunden
1. I. O Haupt voll Blut und Wunden
2. II. Du, dessen Todeswunden
3. III. Ich will hier bei dir stehen
4. Choralkantate No. 5. Verleih uns Frieden
Choralkantate No. 6. Vom Himmel hoch
5. I. Coro
6. II. Aria
7. III. Choral
8. IV. Aria
9. V. Arioso
10. VI. Schlusschor
Choralkantate Nos. 7. Wer nur den lieben Gott lässt walten
11. I. Choral
12. II. Choral
13. III. Arie
14. IV. Choral
Choralkantate No. 8. Wir glauben all an einen Gott
15. I. Wir glauben all an einen Gott
16. II. Wir glauben auch an Jesum Christ
17. III. Wir glauben an den Heilgen Geist
18. Herr Gott, dich loben wir

CD4 Hymne Op. 96 & Lauda Sion Op. 73

Hymne/Drei geistliche Lieder und Fuge, Op. 96
1. Hymne „Lass, o Herr, mich Hilfe finden“
2. Choral: „Deines Kind’s Gebet erhöre“
3. Herr, wir trau’n auf deine Güte
4. Fuga: „Lasst sein heilig Lob uns singen“
5. Hymne "Hör mein Bitten“
6. Kyrie in D Minor
Lauda Sion, Op. 73
7. I. Coro
8. II. Coro
9. III. Soprano solo e Coro
10. IV: Quartetto
11. V. Coro
12. VI. Coro
13. VII. Soprano Solo
14. VIII. Soli e Coro
15. IX: Ecce panis
16. Tu es Petrus, Op. 111

CD5 Magnificat & Gloria

Magnificat
1. Magnificat
2. Quia respexit
3. Et misericordia
4. Fecit potentiam
5. Deposuit potentes
6. Gloria patri
7. Sicut erat
Gloria
8. Gloria
9. Laudamus te
10. Gratias agimus tibi
11. Domine Deus
12. Qui tollis peccata mundi
13. Quoniam tu solus sanctus

CD6 Hora est, Te Deum & Ave Maria

1. Hora est (1828)
2. Te Deum à 4
3. Ave Maria, Op. 23
Te Deum à 8
4. Te Deum laudamus
5. Te aeternum patrem
6. Tibi omnes angeli
7. Tibi cherubim
8. Te gloriosus
9. Patrem immensae
10. Tu rex gloriae
11. Te ergo quaesumus
12. Salvum fac populum
13. Per singulos
14. Dignare
15. Fiat misericordia

CD7 Drei Kirchenmusiken Op. 23 & Drei Motetten OP. 69

Drei Kirchenmusiken, Op. 23
Aus tiefer Not
1. Choral
2. Fuge
3. Arie
4. Choral
5. Choral
6. Choral
7. Mitten wir im Leben
Jesus, meine Zuversicht
8. Choral
9. Soli
10. Choral
11. Aria
12. Fuga
Drei Motetten, Op. 69
13. Herr, nun lässest du deinen Diener
14. Jauchzet dem Herrn alle Welt (Psalm 100)
15. Mein Herz erhebet Gott (Magnificat)

CD8 Drei Psalmen Op. 78, Sechs Sprüche Op. 79 & Die Deutsche Liturgie

Drei Psalmen, Op. 78
1. Warum toben die Heiden (Psalm 2)
2. Richte mich Gott (Psalm 43, Erstfassung)
3. Mein Gott, warum hast du mich verlassen (Psalm 22)
Sechs Sprüche zum Kirchenjahr, Op. 79
4. Advent: „Lasset uns frohlocken“
5. Weihnachten: „Frohlocket, ihr Völker“
6. Neujahr: „Herr Gott, du bist unsere Zuflucht“
7. Passionszeit: „Herr, gedenke nicht“
8. Karfreitag: „Um unserer Sünden Willen“
9. Himmelfahrt: „Erhaben, o Herr“
Die Deutsche Liturgie
10. Kyrie in A
11. Gloria „Ehre sei Gott“
12. Sanctus „Heilig, heilig, heilig“

CD9 Psalmen, Psalmmotetten & Choral-Harmonisierungen

Choral-Harmonisierungen
1. I. Vom Himmel hoch
2. II. Das deutsche Gloria
3. III. Wie schön leuchtet der Morgenstern
Kyrie in c (1823)
4. Kyrie eleison
5. Christe eleison
6. Kyrie eleison
7. Jube Domne (1822)
8. Cantique pour l’Eglise Wallone
Zwei englische Psalmen (Tate)
9. Psalm 5
10. Psalm 31
Sieben Psalmen (Lobwasser)
11. Psalm 2
12. Psalm 24
13. Psalm 31
14. Psalm 91
15. Psalm 93
16. Psalm 98
17. Psalm 100
Dreizehn Psalmmotetten
18. Nr. 1 Ich weiche nicht von deinen Rechten
19. Nr. 2 Deine Rede präg ich meinem Herzen ein
20. Nr. 3 Ich will den Herrn nach seiner Gerechtigkeit preisen
21. Nr. 4 Tag für Tag sei Gott gepriesen
22. Nr. 5 Gott, du bist unsere Zuversicht
23. Nr. 6 Die Himmel erzählen die Ehre Gottes (1. Fassung)
24. Nr. 8 Ein Tag sagt es dem andern
25. Nr. 9 Er hat der Sonne eine Hütte gemacht (1. Fassung)
26. Nr. 11 Das Gesetz des Herrn ist ohne Wandel
27. Nr. 12 Jauchzet Gott, alle Lande
28. Nr. 13 Gelobet sei Gott

CD10 Drei Motetten Op. 39 & Vespergesang

Drei Motetten
1. Veni Domine
Laudate pueri
2. I. Coro
3. II. Terzetto
Surrexti pastor bonus
4. I. Chorus
5. II. Duetto
6. III. Solo und Chorus
7. Hebe deine Augen auf (aus Elias)
8. O beata et benedicta
Vespergesang „Adspice domine/ Schaue herab“, Op. 121
9. I. Allegro moderato
10. II+III. Adagio/Con moto1
11. IV. Adagio
12. V. Andante
Zwei geistliche Männerchöre, Op. 115
13. I. Beati mortui/Selig sind die Toten
14. II. Periti autem/es strahlen hell die Gerechten
15. Trauergesang, Op. 116
16. Jauchzet dem Herrn alle Welt
17. Denn er hat seinen Engeln
18. Zum Abendsegen „Herr, sei gnädig“
Исполнители:
Chamber Choir of Europe
Württembergische Philharmonie Reutlingen
Nicol Matt

Лог создания рипа

CD1

Exact Audio Copy V1.0 beta 3 from 29. August 2011
EAC extraction logfile from 16. May 2015, 14:59
Mendelssohn / Psalmkantaten No.42-95-98, Matt CD1
Used drive : TS8XDVDSTRANSCEND Adapter: 1 ID: 1
Read mode : Secure
Utilize accurate stream : Yes
Defeat audio cache : Yes
Make use of C2 pointers : No
Read offset correction : 6
Overread into Lead-In and Lead-Out : No
Fill up missing offset samples with silence : Yes
Delete leading and trailing silent blocks : No
Null samples used in CRC calculations : Yes
Used interface : Native Win32 interface for Win NT & 2000
Used output format : Monkey's Audio Lossless Encoder
Selected bitrate : High Lossless Compression
Quality : High
Add ID3 tag : Yes
Command line compressor : C:\Program Files (x86)\Exact Audio Copy\MAC\MAC.exe
TOC of the extracted CD
Track | Start | Length | Start sector | End sector
---------------------------------------------------------
1 | 0:00.00 | 5:15.56 | 0 | 23680
2 | 5:15.56 | 2:18.49 | 23681 | 34079
3 | 7:34.30 | 2:48.64 | 34080 | 46743
4 | 10:23.19 | 1:47.25 | 46744 | 54793
5 | 12:10.44 | 1:25.00 | 54794 | 61168
6 | 13:35.44 | 3:37.00 | 61169 | 77443
7 | 17:12.44 | 4:31.02 | 77444 | 97770
8 | 21:43.46 | 5:06.62 | 97771 | 120782
9 | 26:50.33 | 5:54.50 | 120783 | 147382
10 | 32:45.08 | 3:18.46 | 147383 | 162278
11 | 36:03.54 | 2:38.01 | 162279 | 174129
12 | 38:41.55 | 5:36.26 | 174130 | 199355
13 | 44:18.06 | 1:21.73 | 199356 | 205503
14 | 45:40.04 | 1:08.73 | 205504 | 210676
15 | 46:49.02 | 2:22.01 | 210677 | 221327
16 | 49:11.03 | 2:13.46 | 221328 | 231348
Range status and errors
Selected range
Filename D:\EAC\Mendelssohn - Psalmkantaten No.42-95-98, Matt CD1.wav
Peak level 96.8 %
Extraction speed 2.9 X
Range quality 100.0 %
Test CRC F324934A
Copy CRC F324934A
Copy OK
No errors occurred
AccurateRip summary
Track 1 accurately ripped (confidence 3) [CFDF5FEC] (AR v1)
Track 2 accurately ripped (confidence 3) [86663768] (AR v1)
Track 3 accurately ripped (confidence 3) [15634D5B] (AR v1)
Track 4 accurately ripped (confidence 3) [F22C41F0] (AR v1)
Track 5 accurately ripped (confidence 3) [FBF2E059] (AR v1)
Track 6 accurately ripped (confidence 3) [262679B4] (AR v1)
Track 7 accurately ripped (confidence 3) [74AF06FD] (AR v1)
Track 8 accurately ripped (confidence 3) [7A9B3B0B] (AR v1)
Track 9 accurately ripped (confidence 3) [7A775299] (AR v1)
Track 10 accurately ripped (confidence 3) [106D4708] (AR v1)
Track 11 accurately ripped (confidence 3) [DB794015] (AR v1)
Track 12 accurately ripped (confidence 3) [39CA1EDD] (AR v1)
Track 13 accurately ripped (confidence 3) [49D21E5F] (AR v1)
Track 14 accurately ripped (confidence 3) [5DB49501] (AR v1)
Track 15 accurately ripped (confidence 3) [AB3D260F] (AR v1)
Track 16 accurately ripped (confidence 3) [7912BB92] (AR v1)
All tracks accurately ripped
End of status report
---- CUETools DB Plugin V2.1.3
[CTDB TOCID: jodfXM_6lUgwr3B7xNn9Kh6vaPA-] found, Submit result: unrecognized or virtual drive
[d42584e2] (22/22) Accurately ripped
==== Log checksum 1C6D1FF78397E8638FF0440172B2C0FECA3AB7034AE8B1C2962D494941B7583B ====

CD2

Exact Audio Copy V1.0 beta 3 from 29. August 2011
EAC extraction logfile from 16. May 2015, 14:48
Mendelssohn / Psalmkantaten No.114-115 - Choralkantaten No.1-3, Matt CD2
Used drive : TSSTcorpCDDVDW SE-208AB Adapter: 1 ID: 0
Read mode : Secure
Utilize accurate stream : Yes
Defeat audio cache : Yes
Make use of C2 pointers : No
Read offset correction : 6
Overread into Lead-In and Lead-Out : No
Fill up missing offset samples with silence : Yes
Delete leading and trailing silent blocks : No
Null samples used in CRC calculations : Yes
Used interface : Native Win32 interface for Win NT & 2000
Used output format : Monkey's Audio Lossless Encoder
Selected bitrate : High Lossless Compression
Quality : High
Add ID3 tag : Yes
Command line compressor : C:\Program Files (x86)\Exact Audio Copy\MAC\MAC.exe
TOC of the extracted CD
Track | Start | Length | Start sector | End sector
---------------------------------------------------------
1 | 0:00.00 | 2:11.41 | 0 | 9865
2 | 2:11.41 | 2:32.16 | 9866 | 21281
3 | 4:43.57 | 3:57.00 | 21282 | 39056
4 | 8:40.57 | 4:04.03 | 39057 | 57359
5 | 12:44.60 | 5:02.00 | 57360 | 80009
6 | 17:46.60 | 4:32.24 | 80010 | 100433
7 | 22:19.09 | 3:26.00 | 100434 | 115883
8 | 25:45.09 | 3:32.23 | 115884 | 131806
9 | 29:17.32 | 6:47.00 | 131807 | 162331
10 | 36:04.32 | 0:56.12 | 162332 | 166543
11 | 37:00.44 | 2:35.62 | 166544 | 178230
12 | 39:36.31 | 1:24.40 | 178231 | 184570
13 | 41:00.71 | 6:24.06 | 184571 | 213376
14 | 47:25.02 | 6:21.64 | 213377 | 242015
Range status and errors
Selected range
Filename D:\EAC\Mendelssohn - Psalmkantaten No.114-115 - Choralkantaten No.1-3, Matt CD2.wav
Peak level 96.6 %
Extraction speed 4.4 X
Range quality 100.0 %
Test CRC EED98A11
Copy CRC EED98A11
Copy OK
No errors occurred
AccurateRip summary
Track 1 accurately ripped (confidence 2) [ACC76441] (AR v2)
Track 2 accurately ripped (confidence 2) [4DED4144] (AR v2)
Track 3 accurately ripped (confidence 2) [F44CFB74] (AR v2)
Track 4 accurately ripped (confidence 2) [08C6340A] (AR v2)
Track 5 accurately ripped (confidence 2) [37919269] (AR v2)
Track 6 accurately ripped (confidence 2) [EB315BE3] (AR v2)
Track 7 accurately ripped (confidence 2) [11E36C5A] (AR v2)
Track 8 accurately ripped (confidence 2) [DEB1AE1E] (AR v2)
Track 9 accurately ripped (confidence 2) [FDF0F376] (AR v2)
Track 10 accurately ripped (confidence 2) [E0414199] (AR v2)
Track 11 accurately ripped (confidence 2) [9FB5D0C3] (AR v2)
Track 12 accurately ripped (confidence 2) [B0D48E2F] (AR v2)
Track 13 accurately ripped (confidence 2) [8EB5CB4F] (AR v2)
Track 14 accurately ripped (confidence 2) [09641EC4] (AR v2)
All tracks accurately ripped
End of status report
---- CUETools DB Plugin V2.1.3
[CTDB TOCID: lF1NDEdG0RCmIyfyAYAY4EIWefI-] found, Submit result: lF1NDEdG0RCmIyfyAYAY4EIWefI- has been confirmed
[92fcca65] (13/13) Accurately ripped
==== Log checksum 373B319F4730991A18E4B017DFFFE877113A32DF6E36969B4DB486629E798856 ====

CD3

Exact Audio Copy V1.0 beta 3 from 29. August 2011
EAC extraction logfile from 16. May 2015, 15:42
Mendelssohn / Choralkantaten 4-8, Matt CD3
Used drive : TS8XDVDSTRANSCEND Adapter: 1 ID: 1
Read mode : Secure
Utilize accurate stream : Yes
Defeat audio cache : Yes
Make use of C2 pointers : No
Read offset correction : 6
Overread into Lead-In and Lead-Out : No
Fill up missing offset samples with silence : Yes
Delete leading and trailing silent blocks : No
Null samples used in CRC calculations : Yes
Used interface : Native Win32 interface for Win NT & 2000
Used output format : Monkey's Audio Lossless Encoder
Selected bitrate : High Lossless Compression
Quality : High
Add ID3 tag : Yes
Command line compressor : C:\Program Files (x86)\Exact Audio Copy\MAC\MAC.exe
TOC of the extracted CD
Track | Start | Length | Start sector | End sector
---------------------------------------------------------
1 | 0:00.00 | 6:44.03 | 0 | 30302
2 | 6:44.03 | 4:44.00 | 30303 | 51602
3 | 11:28.03 | 1:48.00 | 51603 | 59702
4 | 13:16.03 | 4:18.28 | 59703 | 79080
5 | 17:34.31 | 5:33.09 | 79081 | 104064
6 | 23:07.40 | 2:07.00 | 104065 | 113589
7 | 25:14.40 | 0:35.00 | 113590 | 116214
8 | 25:49.40 | 3:19.53 | 116215 | 131192
9 | 29:09.18 | 0:54.35 | 131193 | 135277
10 | 30:03.53 | 1:43.31 | 135278 | 143033
11 | 31:47.09 | 0:55.00 | 143034 | 147158
12 | 32:42.09 | 3:43.26 | 147159 | 163909
13 | 36:25.35 | 3:04.00 | 163910 | 177709
14 | 39:29.35 | 2:01.74 | 177710 | 186858
15 | 41:31.34 | 2:10.42 | 186859 | 196650
16 | 43:42.01 | 1:58.30 | 196651 | 205530
17 | 45:40.31 | 1:58.13 | 205531 | 214393
18 | 47:38.44 | 6:43.20 | 214394 | 244638
Range status and errors
Selected range
Filename D:\EAC\Mendelssohn - Choralkantaten 4-8, Matt CD3.wav
Peak level 96.6 %
Extraction speed 2.9 X
Range quality 100.0 %
Test CRC E9AD3D07
Copy CRC E9AD3D07
Copy OK
No errors occurred
AccurateRip summary
Track 1 accurately ripped (confidence 4) [237FCB84] (AR v2)
Track 2 accurately ripped (confidence 4) [2EB55BEB] (AR v2)
Track 3 accurately ripped (confidence 4) [D4DB71EE] (AR v2)
Track 4 accurately ripped (confidence 4) [C48FEB84] (AR v2)
Track 5 accurately ripped (confidence 4) [13196C5C] (AR v2)
Track 6 accurately ripped (confidence 4) [823B8DFA] (AR v2)
Track 7 accurately ripped (confidence 4) [0EE2DBB4] (AR v2)
Track 8 accurately ripped (confidence 4) [FA391E71] (AR v2)
Track 9 accurately ripped (confidence 4) [26410878] (AR v2)
Track 10 accurately ripped (confidence 4) [DB64F9D2] (AR v2)
Track 11 accurately ripped (confidence 4) [F5736907] (AR v2)
Track 12 accurately ripped (confidence 4) [5C2AB7AA] (AR v2)
Track 13 accurately ripped (confidence 8) [032A0FC8] (AR v2)
Track 14 accurately ripped (confidence 8) [546F1457] (AR v2)
Track 15 accurately ripped (confidence 4) [8E11E453] (AR v2)
Track 16 accurately ripped (confidence 4) [5ED08B2B] (AR v2)
Track 17 accurately ripped (confidence 4) [04BA11C6] (AR v2)
Track 18 cannot be verified as accurate (confidence 17) [04778EBD], AccurateRip returned [12F56FC0] (AR v2)
17 track(s) accurately ripped
1 track(s) could not be verified as accurate
Some tracks could not be verified as accurate
End of status report
---- CUETools DB Plugin V2.1.3
[CTDB TOCID: HrQCgsNQpeJlsCEjSbQuuNqviC4-] found, Submit result: unrecognized or virtual drive
[cc1aaf77] (13/20) Differs in 412 samples @53:49:03-53:49:04,54:02:17,54:02:35-54:02:36,54:12:70,54:13:13-54:13:14,54:13:69-54:13:70,54:17:31,54:20:12
[508e335d] (05/20) No match
[093c6a65] (01/20) No match
[e85ab772] (01/20) No match
You can use CUETools to repair this rip.
==== Log checksum 5999F85965BC74EBEF1E6697DD04AF6068D54125D36893DBC13458B68F1AB830 ====

CD4

Exact Audio Copy V1.0 beta 3 from 29. August 2011
EAC extraction logfile from 16. May 2015, 15:23
Mendelssohn / Hymne Op.96 & Lauda Sion Op.73, Matt CD4
Used drive : TSSTcorpCDDVDW SE-208AB Adapter: 1 ID: 0
Read mode : Secure
Utilize accurate stream : Yes
Defeat audio cache : Yes
Make use of C2 pointers : No
Read offset correction : 6
Overread into Lead-In and Lead-Out : No
Fill up missing offset samples with silence : Yes
Delete leading and trailing silent blocks : No
Null samples used in CRC calculations : Yes
Used interface : Native Win32 interface for Win NT & 2000
Used output format : Monkey's Audio Lossless Encoder
Selected bitrate : High Lossless Compression
Quality : High
Add ID3 tag : Yes
Command line compressor : C:\Program Files (x86)\Exact Audio Copy\MAC\MAC.exe
TOC of the extracted CD
Track | Start | Length | Start sector | End sector
---------------------------------------------------------
1 | 0:00.00 | 4:21.25 | 0 | 19599
2 | 4:21.25 | 1:46.20 | 19600 | 27569
3 | 6:07.45 | 3:35.54 | 27570 | 43748
4 | 9:43.24 | 3:47.29 | 43749 | 60802
5 | 13:30.53 | 10:44.28 | 60803 | 109130
6 | 24:15.06 | 10:28.14 | 109131 | 156244
7 | 34:43.20 | 4:17.65 | 156245 | 175584
8 | 39:01.10 | 2:09.00 | 175585 | 185259
9 | 41:10.10 | 2:13.68 | 185260 | 195302
10 | 43:24.03 | 3:50.44 | 195303 | 212596
11 | 47:14.47 | 2:09.56 | 212597 | 222327
12 | 49:24.28 | 2:07.51 | 222328 | 231903
13 | 51:32.04 | 2:21.30 | 231904 | 242508
14 | 53:53.34 | 2:35.59 | 242509 | 254192
15 | 56:29.18 | 4:44.50 | 254193 | 275542
16 | 61:13.68 | 6:20.29 | 275543 | 304071
Range status and errors
Selected range
Filename D:\EAC\Mendelssohn - Hymne Op.96 & Lauda Sion Op.73, Matt CD4.wav
Peak level 96.6 %
Extraction speed 4.6 X
Range quality 100.0 %
Test CRC 36B9F84A
Copy CRC 36B9F84A
Copy OK
No errors occurred
AccurateRip summary
Track 1 accurately ripped (confidence 5) [66AAEE2C] (AR v2)
Track 2 accurately ripped (confidence 5) [D1DE14AC] (AR v2)
Track 3 accurately ripped (confidence 5) [4B8FA810] (AR v2)
Track 4 accurately ripped (confidence 5) [2B010F8C] (AR v2)
Track 5 accurately ripped (confidence 5) [EB8BF6B4] (AR v2)
Track 6 accurately ripped (confidence 5) [5BC83DFF] (AR v2)
Track 7 accurately ripped (confidence 5) [E11E1351] (AR v2)
Track 8 accurately ripped (confidence 5) [9C2891D3] (AR v2)
Track 9 accurately ripped (confidence 5) [DE4EFE17] (AR v2)
Track 10 accurately ripped (confidence 5) [181EDCF2] (AR v2)
Track 11 accurately ripped (confidence 5) [4D43519E] (AR v2)
Track 12 accurately ripped (confidence 5) [E724E11B] (AR v2)
Track 13 accurately ripped (confidence 5) [A1D8D945] (AR v2)
Track 14 accurately ripped (confidence 5) [42C57680] (AR v2)
Track 15 accurately ripped (confidence 5) [A2260FC3] (AR v2)
Track 16 accurately ripped (confidence 5) [DFEE48EC] (AR v2)
All tracks accurately ripped
End of status report
---- CUETools DB Plugin V2.1.3
[CTDB TOCID: HdLHltc1u2aRNe2nz3WrcE95080-] found, Submit result: HdLHltc1u2aRNe2nz3WrcE95080- has been confirmed
[2c0c7d9e] (13/13) Accurately ripped
==== Log checksum 90585A697BA88C287A219457D7EE4A6C3F1B798CFE65B2CC73FAB6B8463A17EC ====

CD5

Exact Audio Copy V1.0 beta 3 from 29. August 2011
EAC extraction logfile from 16. May 2015, 16:12
Mendelssohn / Magnificat & Gloria, Matt CD5
Used drive : HL-DT-STDVDRAM GH22NS50 Adapter: 0 ID: 2
Read mode : Secure
Utilize accurate stream : Yes
Defeat audio cache : Yes
Make use of C2 pointers : No
Read offset correction : 667
Overread into Lead-In and Lead-Out : No
Fill up missing offset samples with silence : Yes
Delete leading and trailing silent blocks : No
Null samples used in CRC calculations : Yes
Used interface : Native Win32 interface for Win NT & 2000
Used output format : Monkey's Audio Lossless Encoder
Selected bitrate : High Lossless Compression
Quality : High
Add ID3 tag : Yes
Command line compressor : C:\Program Files (x86)\Exact Audio Copy\MAC\MAC.exe
TOC of the extracted CD
Track | Start | Length | Start sector | End sector
---------------------------------------------------------
1 | 0:00.00 | 4:34.40 | 0 | 20589
2 | 4:34.40 | 2:56.56 | 20590 | 33845
3 | 7:31.21 | 3:47.15 | 33846 | 50885
4 | 11:18.36 | 4:18.06 | 50886 | 70241
5 | 15:36.42 | 5:28.44 | 70242 | 94885
6 | 21:05.11 | 5:05.21 | 94886 | 117781
7 | 26:10.32 | 3:37.64 | 117782 | 134120
8 | 29:48.21 | 4:25.00 | 134121 | 153995
9 | 34:13.21 | 10:17.69 | 153996 | 200339
10 | 44:31.15 | 4:21.32 | 200340 | 219946
11 | 48:52.47 | 3:37.59 | 219947 | 236280
12 | 52:30.31 | 4:37.60 | 236281 | 257115
13 | 57:08.16 | 4:06.66 | 257116 | 275631
Range status and errors
Selected range
Filename D:\EAC\Mendelssohn - Magnificat & Gloria, Matt CD5.wav
Peak level 94.4 %
Extraction speed 1.8 X
Range quality 100.0 %
Test CRC 853AA9AE
Copy CRC 853AA9AE
Copy OK
No errors occurred
AccurateRip summary
Track 1 accurately ripped (confidence 2) [BDC267BB] (AR v2)
Track 2 accurately ripped (confidence 2) [3554B008] (AR v2)
Track 3 accurately ripped (confidence 2) [CF9AB543] (AR v2)
Track 4 accurately ripped (confidence 2) [D6F93B9D] (AR v2)
Track 5 accurately ripped (confidence 2) [CAD4745E] (AR v2)
Track 6 accurately ripped (confidence 2) [FCC51019] (AR v2)
Track 7 accurately ripped (confidence 2) [A81CD575] (AR v2)
Track 8 accurately ripped (confidence 2) [127D7F47] (AR v2)
Track 9 accurately ripped (confidence 2) [683C0AF3] (AR v2)
Track 10 accurately ripped (confidence 2) [68B5999F] (AR v2)
Track 11 accurately ripped (confidence 2) [8D703C3D] (AR v2)
Track 12 accurately ripped (confidence 2) [00D1AF19] (AR v2)
Track 13 accurately ripped (confidence 2) [A6AAACAE] (AR v2)
All tracks accurately ripped
End of status report
---- CUETools DB Plugin V2.1.3
[CTDB TOCID: TI3exJ5_.YuroRUYAzbrlq6FHO8-] found, Submit result: TI3exJ5_.YuroRUYAzbrlq6FHO8- has been confirmed
[8aa8dde4] (18/19) Accurately ripped
[da6590b6] (01/19) No match
==== Log checksum 01E82E0D14DC220FD977D6FCCB60C110DF3577A0D36C96BF67A5049CD3EB7A1E ====

CD6

Exact Audio Copy V1.0 beta 3 from 29. August 2011
EAC extraction logfile from 16. May 2015, 15:57
Mendelssohn / Hora est, Te Deum & Ave Maria, Matt CD6
Used drive : TSSTcorpCDDVDW SE-208AB Adapter: 1 ID: 0
Read mode : Secure
Utilize accurate stream : Yes
Defeat audio cache : Yes
Make use of C2 pointers : No
Read offset correction : 6
Overread into Lead-In and Lead-Out : No
Fill up missing offset samples with silence : Yes
Delete leading and trailing silent blocks : No
Null samples used in CRC calculations : Yes
Used interface : Native Win32 interface for Win NT & 2000
Used output format : Monkey's Audio Lossless Encoder
Selected bitrate : High Lossless Compression
Quality : High
Add ID3 tag : Yes
Command line compressor : C:\Program Files (x86)\Exact Audio Copy\MAC\MAC.exe
TOC of the extracted CD
Track | Start | Length | Start sector | End sector
---------------------------------------------------------
1 | 0:00.00 | 8:45.19 | 0 | 39393
2 | 8:45.19 | 8:41.26 | 39394 | 78494
3 | 17:26.45 | 7:59.05 | 78495 | 114424
4 | 25:25.50 | 3:02.46 | 114425 | 128120
5 | 28:28.21 | 2:21.73 | 128121 | 138768
6 | 30:50.19 | 2:20.25 | 138769 | 149293
7 | 33:10.44 | 3:12.24 | 149294 | 163717
8 | 36:22.68 | 3:11.62 | 163718 | 178104
9 | 39:34.55 | 2:06.18 | 178105 | 187572
10 | 41:40.73 | 3:17.00 | 187573 | 202347
11 | 44:57.73 | 2:46.22 | 202348 | 214819
12 | 47:44.20 | 2:12.37 | 214820 | 224756
13 | 49:56.57 | 2:07.40 | 224757 | 234321
14 | 52:04.22 | 3:44.57 | 234322 | 251178
15 | 55:49.04 | 4:29.37 | 251179 | 271390
Range status and errors
Selected range
Filename D:\EAC\Mendelssohn - Hora est, Te Deum & Ave Maria, Matt CD6.wav
Peak level 93.3 %
Extraction speed 4.5 X
Range quality 100.0 %
Test CRC D2CA7780
Copy CRC D2CA7780
Copy OK
No errors occurred
AccurateRip summary
Track 1 accurately ripped (confidence 7) [5904BF18] (AR v2)
Track 2 accurately ripped (confidence 7) [1B123260] (AR v2)
Track 3 accurately ripped (confidence 7) [5C96C987] (AR v2)
Track 4 accurately ripped (confidence 7) [7005F67C] (AR v2)
Track 5 accurately ripped (confidence 7) [DF77FEC0] (AR v2)
Track 6 accurately ripped (confidence 7) [9281459E] (AR v2)
Track 7 accurately ripped (confidence 7) [98278D21] (AR v2)
Track 8 accurately ripped (confidence 7) [88CA0D59] (AR v2)
Track 9 accurately ripped (confidence 7) [C2E27711] (AR v2)
Track 10 accurately ripped (confidence 7) [C293C365] (AR v2)
Track 11 accurately ripped (confidence 7) [D84008BB] (AR v2)
Track 12 accurately ripped (confidence 7) [8B46608C] (AR v2)
Track 13 accurately ripped (confidence 7) [09A298C8] (AR v2)
Track 14 accurately ripped (confidence 6) [58F2795D] (AR v2)
Track 15 accurately ripped (confidence 6) [53C25E8A] (AR v2)
All tracks accurately ripped
End of status report
---- CUETools DB Plugin V2.1.3
[CTDB TOCID: _1JGshyJ7ivcJYAaQZovm6lZm6Y-] found, Submit result: _1JGshyJ7ivcJYAaQZovm6lZm6Y- has been confirmed
[5ae213fb] (21/21) Accurately ripped
==== Log checksum 6EEE034BC1B42135C5EA8F96FF8E9B0D6BE998C6AA63485864A37BC0A575F7DF ====

CD7

Exact Audio Copy V1.0 beta 3 from 29. August 2011
EAC extraction logfile from 16. May 2015, 16:28
Mendelssohn / Drei Kirchenmusiken Op.23 & Drei Motetten Op.69, Matt CD7
Used drive : TS8XDVDSTRANSCEND Adapter: 1 ID: 1
Read mode : Secure
Utilize accurate stream : Yes
Defeat audio cache : Yes
Make use of C2 pointers : No
Read offset correction : 6
Overread into Lead-In and Lead-Out : No
Fill up missing offset samples with silence : Yes
Delete leading and trailing silent blocks : No
Null samples used in CRC calculations : Yes
Used interface : Native Win32 interface for Win NT & 2000
Used output format : Monkey's Audio Lossless Encoder
Selected bitrate : High Lossless Compression
Quality : High
Add ID3 tag : Yes
Command line compressor : C:\Program Files (x86)\Exact Audio Copy\MAC\MAC.exe
TOC of the extracted CD
Track | Start | Length | Start sector | End sector
---------------------------------------------------------
1 | 0:00.00 | 1:05.00 | 0 | 4874
2 | 1:05.00 | 4:15.00 | 4875 | 23999
3 | 5:20.00 | 1:34.67 | 24000 | 31116
4 | 6:54.67 | 1:51.00 | 31117 | 39441
5 | 8:45.67 | 2:43.00 | 39442 | 51666
6 | 11:28.67 | 1:12.54 | 51667 | 57120
7 | 12:41.46 | 7:39.00 | 57121 | 91545
8 | 20:20.46 | 1:04.00 | 91546 | 96345
9 | 21:24.46 | 1:57.00 | 96346 | 105120
10 | 23:21.46 | 0:51.00 | 105121 | 108945
11 | 24:12.46 | 2:00.18 | 108946 | 117963
12 | 26:12.64 | 4:26.19 | 117964 | 137932
13 | 30:39.08 | 5:05.12 | 137933 | 160819
14 | 35:44.20 | 6:00.63 | 160820 | 187882
15 | 41:45.08 | 10:42.61 | 187883 | 236093
Range status and errors
Selected range
Filename D:\EAC\Mendelssohn - Drei Kirchenmusiken Op.23 & Drei Motetten Op.69, Matt CD7.wav
Peak level 94.4 %
Extraction speed 2.9 X
Range quality 100.0 %
Test CRC AECE3F24
Copy CRC AECE3F24
Copy OK
No errors occurred
AccurateRip summary
Track 1 accurately ripped (confidence 5) [389D1346] (AR v2)
Track 2 accurately ripped (confidence 5) [C5F551B8] (AR v2)
Track 3 accurately ripped (confidence 5) [CA036D4C] (AR v2)
Track 4 accurately ripped (confidence 5) [15FC97BD] (AR v2)
Track 5 accurately ripped (confidence 5) [95C6E35D] (AR v2)
Track 6 accurately ripped (confidence 5) [F9ECE69E] (AR v2)
Track 7 accurately ripped (confidence 5) [3A3CE35A] (AR v2)
Track 8 accurately ripped (confidence 5) [981C66B0] (AR v2)
Track 9 accurately ripped (confidence 5) [D60D5A76] (AR v2)
Track 10 accurately ripped (confidence 5) [C548A17E] (AR v2)
Track 11 accurately ripped (confidence 5) [BF79463C] (AR v2)
Track 12 accurately ripped (confidence 5) [E98CFEE3] (AR v2)
Track 13 accurately ripped (confidence 5) [9E2CEF32] (AR v2)
Track 14 accurately ripped (confidence 5) [A7DE206D] (AR v2)
Track 15 accurately ripped (confidence 5) [729D77C4] (AR v2)
All tracks accurately ripped
End of status report
---- CUETools DB Plugin V2.1.3
[CTDB TOCID: LyIEjPHRnd2QHsyw3EyqhfWUyaM-] found, Submit result: unrecognized or virtual drive
[32fa21d1] (19/19) Accurately ripped
==== Log checksum 37B4CE15A351BE3C8E2D70ED8915FE6D91DD7613E2181B4BEA8D18F3B32AE7E8 ====

CD8

Exact Audio Copy V1.0 beta 3 from 29. August 2011
EAC extraction logfile from 16. May 2015, 16:36
Mendelssohn / 3 Psalmen,6 Sprüche & Die Deutsche Liturgie, Matt CD8
Used drive : TSSTcorpCDDVDW SE-208AB Adapter: 1 ID: 0
Read mode : Secure
Utilize accurate stream : Yes
Defeat audio cache : Yes
Make use of C2 pointers : No
Read offset correction : 6
Overread into Lead-In and Lead-Out : No
Fill up missing offset samples with silence : Yes
Delete leading and trailing silent blocks : No
Null samples used in CRC calculations : Yes
Used interface : Native Win32 interface for Win NT & 2000
Used output format : Monkey's Audio Lossless Encoder
Selected bitrate : High Lossless Compression
Quality : High
Add ID3 tag : Yes
Command line compressor : C:\Program Files (x86)\Exact Audio Copy\MAC\MAC.exe
TOC of the extracted CD
Track | Start | Length | Start sector | End sector
---------------------------------------------------------
1 | 0:00.00 | 7:31.00 | 0 | 33824
2 | 7:31.00 | 4:01.00 | 33825 | 51899
3 | 11:32.00 | 8:12.00 | 51900 | 88799
4 | 19:44.00 | 1:49.00 | 88800 | 96974
5 | 21:33.00 | 1:35.00 | 96975 | 104099
6 | 23:08.00 | 2:57.00 | 104100 | 117374
7 | 26:05.00 | 1:39.00 | 117375 | 124799
8 | 27:44.00 | 1:45.00 | 124800 | 132674
9 | 29:29.00 | 1:35.00 | 132675 | 139799
10 | 31:04.00 | 1:15.00 | 139800 | 145424
11 | 32:19.00 | 3:59.70 | 145425 | 163419
12 | 36:18.70 | 1:39.41 | 163420 | 170885
Range status and errors
Selected range
Filename D:\EAC\Mendelssohn - 3 Psalmen,6 Sprüche & Die Deutsche Liturgie, Matt CD8.wav
Peak level 92.0 %
Extraction speed 1.6 X
Range quality 99.9 %
Test CRC 633E0886
Copy CRC 633E0886
Copy OK
No errors occurred
AccurateRip summary
Track 1 accurately ripped (confidence 9) [87BB92F9] (AR v2)
Track 2 accurately ripped (confidence 9) [F63E3382] (AR v2)
Track 3 accurately ripped (confidence 9) [1A082537] (AR v2)
Track 4 accurately ripped (confidence 9) [A1BE3790] (AR v2)
Track 5 accurately ripped (confidence 9) [E87C68C2] (AR v2)
Track 6 accurately ripped (confidence 9) [48D4EC66] (AR v2)
Track 7 accurately ripped (confidence 9) [BB9256CE] (AR v2)
Track 8 accurately ripped (confidence 9) [EE9137D3] (AR v2)
Track 9 accurately ripped (confidence 9) [96C8E5BF] (AR v2)
Track 10 accurately ripped (confidence 9) [D5AC83BB] (AR v2)
Track 11 accurately ripped (confidence 9) [CB695493] (AR v2)
Track 12 accurately ripped (confidence 9) [6DB7E92B] (AR v2)
All tracks accurately ripped
End of status report
---- CUETools DB Plugin V2.1.3
[CTDB TOCID: 5vk4Cozj6PGtbB3lgRXHioR0IRw-] found, Submit result: 5vk4Cozj6PGtbB3lgRXHioR0IRw- has been confirmed
[3814bc53] (18/18) Accurately ripped
==== Log checksum BEBC6D40133ED7743460D03BD2776BA36AA181EDFD0D43D56112440EA5E02D7C ====

CD9

Exact Audio Copy V1.0 beta 3 from 29. August 2011
EAC extraction logfile from 16. May 2015, 17:18
Mendelssohn / Psalmen, Psalmmotetten, Choralharmonisierungen, Matt CD9
Used drive : TS8XDVDSTRANSCEND Adapter: 1 ID: 1
Read mode : Secure
Utilize accurate stream : Yes
Defeat audio cache : Yes
Make use of C2 pointers : No
Read offset correction : 6
Overread into Lead-In and Lead-Out : No
Fill up missing offset samples with silence : Yes
Delete leading and trailing silent blocks : No
Null samples used in CRC calculations : Yes
Used interface : Native Win32 interface for Win NT & 2000
Used output format : Monkey's Audio Lossless Encoder
Selected bitrate : High Lossless Compression
Quality : High
Add ID3 tag : Yes
Command line compressor : C:\Program Files (x86)\Exact Audio Copy\MAC\MAC.exe
TOC of the extracted CD
Track | Start | Length | Start sector | End sector
---------------------------------------------------------
1 | 0:00.00 | 2:07.00 | 0 | 9524
2 | 2:07.00 | 3:24.00 | 9525 | 24824
3 | 5:31.00 | 4:53.72 | 24825 | 46871
4 | 10:24.72 | 3:50.00 | 46872 | 64121
5 | 14:14.72 | 2:45.00 | 64122 | 76496
6 | 16:59.72 | 5:43.00 | 76497 | 102221
7 | 22:42.72 | 6:18.42 | 102222 | 130613
8 | 29:01.39 | 1:35.32 | 130614 | 137770
9 | 30:36.71 | 2:53.00 | 137771 | 150745
10 | 33:29.71 | 2:31.00 | 150746 | 162070
11 | 36:00.71 | 1:17.00 | 162071 | 167845
12 | 37:17.71 | 0:47.00 | 167846 | 171370
13 | 38:04.71 | 0:52.00 | 171371 | 175270
14 | 38:56.71 | 1:04.18 | 175271 | 180088
15 | 40:01.14 | 0:41.00 | 180089 | 183163
16 | 40:42.14 | 1:02.00 | 183164 | 187813
17 | 41:44.14 | 1:10.67 | 187814 | 193130
18 | 42:55.06 | 2:35.00 | 193131 | 204755
19 | 45:30.06 | 2:51.50 | 204756 | 217630
20 | 48:21.56 | 2:40.00 | 217631 | 229630
21 | 51:01.56 | 2:51.24 | 229631 | 242479
22 | 53:53.05 | 4:15.00 | 242480 | 261604
23 | 58:08.05 | 4:09.32 | 261605 | 280311
24 | 62:17.37 | 3:12.62 | 280312 | 294773
25 | 65:30.24 | 5:33.00 | 294774 | 319748
26 | 71:03.24 | 1:40.00 | 319749 | 327248
27 | 72:43.24 | 3:55.48 | 327249 | 344921
28 | 76:38.72 | 1:39.22 | 344922 | 352368
Range status and errors
Selected range
Filename D:\EAC\Mendelssohn - Psalmen, Psalmmotetten, Choralharmonisierungen, Matt CD9.wav
Peak level 92.6 %
Extraction speed 3.5 X
Range quality 100.0 %
Test CRC 52276681
Copy CRC 52276681
Copy OK
No errors occurred
AccurateRip summary
Track 1 accurately ripped (confidence 4) [CB342F93] (AR v2)
Track 2 accurately ripped (confidence 4) [921174E0] (AR v2)
Track 3 accurately ripped (confidence 4) [AC481AA7] (AR v2)
Track 4 accurately ripped (confidence 4) [BFE7FDD3] (AR v2)
Track 5 accurately ripped (confidence 4) [E8F5A896] (AR v2)
Track 6 accurately ripped (confidence 4) [729A5370] (AR v2)
Track 7 accurately ripped (confidence 4) [C8E749C7] (AR v2)
Track 8 accurately ripped (confidence 4) [054B20A8] (AR v2)
Track 9 accurately ripped (confidence 4) [3AC2F3CD] (AR v2)
Track 10 accurately ripped (confidence 4) [E829F3EA] (AR v2)
Track 11 accurately ripped (confidence 4) [79D3AA9A] (AR v2)
Track 12 accurately ripped (confidence 4) [97BD2840] (AR v2)
Track 13 accurately ripped (confidence 4) [ADE86818] (AR v2)
Track 14 accurately ripped (confidence 4) [257B5B4A] (AR v2)
Track 15 accurately ripped (confidence 4) [0FE2DEF8] (AR v2)
Track 16 accurately ripped (confidence 4) [97360821] (AR v2)
Track 17 accurately ripped (confidence 4) [4A35032C] (AR v2)
Track 18 accurately ripped (confidence 4) [46F8F692] (AR v2)
Track 19 accurately ripped (confidence 4) [206DB1BF] (AR v2)
Track 20 accurately ripped (confidence 4) [1EC1FC32] (AR v2)
Track 21 accurately ripped (confidence 4) [C47CF5EE] (AR v2)
Track 22 accurately ripped (confidence 4) [1DBD800A] (AR v2)
Track 23 accurately ripped (confidence 4) [8621C75E] (AR v2)
Track 24 accurately ripped (confidence 4) [8A076D06] (AR v2)
Track 25 accurately ripped (confidence 4) [2B8722C8] (AR v2)
Track 26 accurately ripped (confidence 4) [6BAA74A7] (AR v2)
Track 27 accurately ripped (confidence 4) [4A5721FA] (AR v2)
Track 28 accurately ripped (confidence 4) [251E6436] (AR v2)
All tracks accurately ripped
End of status report
---- CUETools DB Plugin V2.1.3
[CTDB TOCID: LBYOAPgjQGkfuQncOitXc_tYW_A-] found, Submit result: unrecognized or virtual drive
[3a33e3fc] (19/19) Accurately ripped
==== Log checksum 4144081DE9C263A18F21F073F748DAA9FEF54FBD79B43F8D450843DEFCD9EF47 ====

CD10

Exact Audio Copy V1.0 beta 3 from 29. August 2011
EAC extraction logfile from 16. May 2015, 17:16
Mendelssohn / 3 Motetten Op 39 & Vespergesang, Matt CD10
Used drive : TSSTcorpCDDVDW SE-208AB Adapter: 1 ID: 0
Read mode : Secure
Utilize accurate stream : Yes
Defeat audio cache : Yes
Make use of C2 pointers : No
Read offset correction : 6
Overread into Lead-In and Lead-Out : No
Fill up missing offset samples with silence : Yes
Delete leading and trailing silent blocks : No
Null samples used in CRC calculations : Yes
Used interface : Native Win32 interface for Win NT & 2000
Used output format : Monkey's Audio Lossless Encoder
Selected bitrate : High Lossless Compression
Quality : High
Add ID3 tag : Yes
Command line compressor : C:\Program Files (x86)\Exact Audio Copy\MAC\MAC.exe
TOC of the extracted CD
Track | Start | Length | Start sector | End sector
---------------------------------------------------------
1 | 0:00.00 | 3:47.00 | 0 | 17024
2 | 3:47.00 | 3:27.00 | 17025 | 32549
3 | 7:14.00 | 2:18.00 | 32550 | 42899
4 | 9:32.00 | 2:38.00 | 42900 | 54749
5 | 12:10.00 | 2:05.14 | 54750 | 64138
6 | 14:15.14 | 2:53.00 | 64139 | 77113
7 | 17:08.14 | 1:48.00 | 77114 | 85213
8 | 18:56.14 | 3:00.00 | 85214 | 98713
9 | 21:56.14 | 3:22.00 | 98714 | 113863
10 | 25:18.14 | 3:17.13 | 113864 | 128651
11 | 28:35.27 | 1:42.27 | 128652 | 136328
12 | 30:17.54 | 3:06.36 | 136329 | 150314
13 | 33:24.15 | 3:22.00 | 150315 | 165464
14 | 36:46.15 | 2:23.00 | 165465 | 176189
15 | 39:09.15 | 3:56.00 | 176190 | 193889
16 | 43:05.15 | 4:28.10 | 193890 | 213999
17 | 47:33.25 | 3:15.21 | 214000 | 228645
18 | 50:48.46 | 2:22.45 | 228646 | 239340
Range status and errors
Selected range
Filename D:\EAC\Mendelssohn - 3 Motetten Op 39 & Vespergesang, Matt CD10.wav
Peak level 93.4 %
Extraction speed 4.3 X
Range quality 99.9 %
Test CRC BB65DC90
Copy CRC BB65DC90
Copy OK
No errors occurred
AccurateRip summary
Track 1 cannot be verified as accurate (confidence 15) [543BE7B9], AccurateRip returned [5BC24402] (AR v2)
Track 2 cannot be verified as accurate (confidence 16) [2222208E], AccurateRip returned [22BA5D7F] (AR v2)
Track 3 cannot be verified as accurate (confidence 16) [67EFC270], AccurateRip returned [901F8DA6] (AR v2)
Track 4 cannot be verified as accurate (confidence 16) [29842984], AccurateRip returned [5BC9FAD1] (AR v2)
Track 5 cannot be verified as accurate (confidence 16) [51556E59], AccurateRip returned [4F3FBF9B] (AR v2)
Track 6 cannot be verified as accurate (confidence 16) [C16A1071], AccurateRip returned [DE398553] (AR v2)
Track 7 cannot be verified as accurate (confidence 16) [BD370D9E], AccurateRip returned [BE309612] (AR v2)
Track 8 cannot be verified as accurate (confidence 16) [C93070F5], AccurateRip returned [7F5C5601] (AR v2)
Track 9 cannot be verified as accurate (confidence 16) [E59219AE], AccurateRip returned [CAC5F9E5] (AR v2)
Track 10 cannot be verified as accurate (confidence 16) [2105B4AA], AccurateRip returned [6096C1EC] (AR v2)
Track 11 cannot be verified as accurate (confidence 16) [7A6DD018], AccurateRip returned [1AA49099] (AR v2)
Track 12 cannot be verified as accurate (confidence 16) [37FC5CE5], AccurateRip returned [5FBB3FC9] (AR v2)
Track 13 cannot be verified as accurate (confidence 16) [DED9ED7E], AccurateRip returned [2A5C7639] (AR v2)
Track 14 cannot be verified as accurate (confidence 16) [9C40D2E6], AccurateRip returned [4E3CFBF4] (AR v2)
Track 15 cannot be verified as accurate (confidence 16) [C9DD8721], AccurateRip returned [E633FCDD] (AR v2)
Track 16 cannot be verified as accurate (confidence 16) [DBD004F5], AccurateRip returned [2F26693B] (AR v2)
Track 17 cannot be verified as accurate (confidence 16) [3E5F1766], AccurateRip returned [98D478A4] (AR v2)
Track 18 cannot be verified as accurate (confidence 16) [4D59EDD5], AccurateRip returned [32F35F97] (AR v2)
No tracks could be verified as accurate
You may have a different pressing from the one(s) in the database
End of status report
---- CUETools DB Plugin V2.1.3
[CTDB TOCID: C2LTEWXunLAo0XeS8ZO1o529Py4-] found, Submit result: C2LTEWXunLAo0XeS8ZO1o529Py4- has been confirmed
[0e1efa0c] (22/26) Accurately ripped
[a8c10955] (01/26) No match
[909b1896] (01/26) No match
[62bb1069] (01/26) No match
[5cbc925e] (01/26) No match
==== Log checksum CE213CC1B440A7802D49336CFD493A8E3ACA8FDA2D9639E064FCAAF1920A9326 ====

Содержание индексной карты (.CUE)

CD1

REM GENRE Choral
REM DATE 2002
REM DISCID CB0C0C10
REM COMMENT "ExactAudioCopy v1.0b3"
PERFORMER "Mendelssohn"
TITLE "Psalmkantaten No.42-95-98, Matt CD1"
FILE "Mendelssohn - Psalmkantaten No.42-95-98, Matt CD1.ape" WAVE
TRACK 01 AUDIO
TITLE "Der 42. Psalm ''Wie der Hirsch schreit'' Op.42 - 1. Coro"
PERFORMER "Mendelssohn"
FLAGS DCP
INDEX 01 00:00:00
TRACK 02 AUDIO
TITLE "Der 42. Psalm ''Wie der Hirsch schreit'' Op.42 - 2. Aria"
PERFORMER "Mendelssohn"
FLAGS DCP
INDEX 01 05:15:56
TRACK 03 AUDIO
TITLE "Der 42. Psalm ''Wie der Hirsch schreit'' Op.42 - 3. Recitativo-Aria"
PERFORMER "Mendelssohn"
FLAGS DCP
INDEX 01 07:34:30
TRACK 04 AUDIO
TITLE "Der 42. Psalm ''Wie der Hirsch schreit'' Op.42 - 4. Coro"
PERFORMER "Mendelssohn"
FLAGS DCP
INDEX 01 10:23:19
TRACK 05 AUDIO
TITLE "Der 42. Psalm ''Wie der Hirsch schreit'' Op.42 - 5. Recitativo"
PERFORMER "Mendelssohn"
FLAGS DCP
INDEX 01 12:10:44
TRACK 06 AUDIO
TITLE "Der 42. Psalm ''Wie der Hirsch schreit'' Op.42 - 6. Quintetto"
PERFORMER "Mendelssohn"
FLAGS DCP
INDEX 01 13:35:44
TRACK 07 AUDIO
TITLE "Der 42. Psalm ''Wie der Hirsch schreit'' Op.42 - 7. Schlusschor"
PERFORMER "Mendelssohn"
FLAGS DCP
INDEX 01 17:12:44
TRACK 08 AUDIO
TITLE "Der 95. Psalm ''Kommt, lasst uns anbeten'' Op.46 - 1. Coro"
PERFORMER "Mendelssohn"
FLAGS DCP
INDEX 01 21:43:46
TRACK 09 AUDIO
TITLE "Der 95. Psalm ''Kommt, lasst uns anbeten'' Op.46 - 2. Coro"
PERFORMER "Mendelssohn"
FLAGS DCP
INDEX 01 26:50:33
TRACK 10 AUDIO
TITLE "Der 95. Psalm ''Kommt, lasst uns anbeten'' Op.46 - 3. Duetto"
PERFORMER "Mendelssohn"
FLAGS DCP
INDEX 01 32:45:08
TRACK 11 AUDIO
TITLE "Der 95. Psalm ''Kommt, lasst uns anbeten'' Op.46 - 4. Coro"
PERFORMER "Mendelssohn"
FLAGS DCP
INDEX 01 36:03:54
TRACK 12 AUDIO
TITLE "Der 95. Psalm ''Kommt, lasst uns anbeten'' Op.46 - 5. Coro"
PERFORMER "Mendelssohn"
FLAGS DCP
INDEX 01 38:41:55
TRACK 13 AUDIO
TITLE "Der 98. Psalm ''Singet dem Herrn'' Op.91 - 1. Allegro"
PERFORMER "Mendelssohn"
FLAGS DCP
INDEX 01 44:18:06
TRACK 14 AUDIO
TITLE "Der 98. Psalm ''Singet dem Herrn'' Op.91 - 2. Andante lento"
PERFORMER "Mendelssohn"
FLAGS DCP
INDEX 01 45:40:04
TRACK 15 AUDIO
TITLE "Der 98. Psalm ''Singet dem Herrn'' Op.91 - 3. Andante con moto"
PERFORMER "Mendelssohn"
FLAGS DCP
INDEX 01 46:49:02
TRACK 16 AUDIO
TITLE "Der 98. Psalm ''Singet dem Herrn'' Op.91 - 4. Allegro"
PERFORMER "Mendelssohn"
FLAGS DCP
INDEX 01 49:11:03

CD2

REM GENRE Choral
REM DATE 2002
REM DISCID C10C9A0E
REM COMMENT "ExactAudioCopy v1.0b3"
PERFORMER "Mendelssohn"
TITLE "Psalmkantaten No.114-115 - Choralkantaten No.1-3, Matt CD2"
FILE "Mendelssohn - Psalmkantaten No.114-115 - Choralkantaten No.1-3, Matt CD2.ape" WAVE
TRACK 01 AUDIO
TITLE "Der 114. Psalm ''Da Israel aus Ägypten zog'' Op.51 - 1. Allegro con moto maes..."
PERFORMER "Mendelssohn"
FLAGS DCP
INDEX 01 00:00:00
TRACK 02 AUDIO
TITLE "Der 114. Psalm ''Da Israel aus Ägypten zog'' Op.51 - 2. Allegro moderato"
PERFORMER "Mendelssohn"
FLAGS DCP
INDEX 01 02:11:41
TRACK 03 AUDIO
TITLE "Der 114. Psalm ''Da Israel aus Ägypten zog'' Op.51 - 3. Grave"
PERFORMER "Mendelssohn"
FLAGS DCP
INDEX 01 04:43:57
TRACK 04 AUDIO
TITLE "Der 114. Psalm ''Da Israel aus Ägypten zog'' Op.51 - 4. Con moto"
PERFORMER "Mendelssohn"
FLAGS DCP
INDEX 01 08:40:57
TRACK 05 AUDIO
TITLE "Der 115. Psalm ''Non nobis Domine'' Op.31 - 1. Chor"
PERFORMER "Mendelssohn"
FLAGS DCP
INDEX 01 12:44:60
TRACK 06 AUDIO
TITLE "Der 115. Psalm ''Non nobis Domine'' Op.31 - 2. Duett mit Chor"
PERFORMER "Mendelssohn"
FLAGS DCP
INDEX 01 17:46:60
TRACK 07 AUDIO
TITLE "Der 115. Psalm ''Non nobis Domine'' Op.31 - 3. Arioso"
PERFORMER "Mendelssohn"
FLAGS DCP
INDEX 01 22:19:09
TRACK 08 AUDIO
TITLE "Der 115. Psalm ''Non nobis Domine'' Op.31 - 4. Chor"
PERFORMER "Mendelssohn"
FLAGS DCP
INDEX 01 25:45:09
TRACK 09 AUDIO
TITLE "Choral Cantata No.1 ''Ach Gott,vom Himmel sieh darein'' - 1. Coro"
PERFORMER "Mendelssohn"
FLAGS DCP
INDEX 01 29:17:32
TRACK 10 AUDIO
TITLE "Choral Cantata No.1 ''Ach Gott,vom Himmel sieh darein'' - 2. Recitativo"
PERFORMER "Mendelssohn"
FLAGS DCP
INDEX 01 36:04:32
TRACK 11 AUDIO
TITLE "Choral Cantata No.1 ''Ach Gott,vom Himmel sieh darein'' - 3. Aria"
PERFORMER "Mendelssohn"
FLAGS DCP
INDEX 01 37:00:44
TRACK 12 AUDIO
TITLE "Choral Cantata No.1 ''Ach Gott,vom Himmel sieh darein'' - 4. Choral"
PERFORMER "Mendelssohn"
FLAGS DCP
INDEX 01 39:36:31
TRACK 13 AUDIO
TITLE "Choral Cantata No.2 ''Christe, du Lamm Gottes''"
PERFORMER "Mendelssohn"
FLAGS DCP
INDEX 01 41:00:71
TRACK 14 AUDIO
TITLE "Choral Cantata No.3 ''Jesu, meine Freude''"
PERFORMER "Mendelssohn"
FLAGS DCP
INDEX 01 47:25:02

CD3

REM GENRE Choral
REM DATE 2002
REM DISCID 0F0CBD12
REM COMMENT "ExactAudioCopy v1.0b3"
PERFORMER "Mendelssohn"
TITLE "Choralkantaten 4-8, Matt CD3"
FILE "Mendelssohn - Choralkantaten 4-8, Matt CD3.ape" WAVE
TRACK 01 AUDIO
TITLE "8 Choral Cantatas No.4 =O Haupt voll Blut und Wunden=-O Hauptvoll Blut und Wu..."
PERFORMER "Mendelssohn"
FLAGS DCP
INDEX 01 00:00:00
TRACK 02 AUDIO
TITLE "8 Choral Cantatas No.4 =O Haupt voll Blut und Wunden=-Du,dessen Todeswunden"
PERFORMER "Mendelssohn"
FLAGS DCP
INDEX 01 06:44:03
TRACK 03 AUDIO
TITLE "8 Choral Cantatas No.4 =O Haupt voll Blut und Wunden=-Ich willhier bei dir st..."
PERFORMER "Mendelssohn"
FLAGS DCP
INDEX 01 11:28:03
TRACK 04 AUDIO
TITLE "8 Choral Cantatas No.5 =Verleih uns Frieden="
PERFORMER "Mendelssohn"
FLAGS DCP
INDEX 01 13:16:03
TRACK 05 AUDIO
TITLE "8 Choral Cantatas No.6 =Vom Himmel hoch=-Coro"
PERFORMER "Mendelssohn"
FLAGS DCP
INDEX 01 17:34:31
TRACK 06 AUDIO
TITLE "8 Choral Cantatas No.6 =Vom Himmel hoch=-Aria"
PERFORMER "Mendelssohn"
FLAGS DCP
INDEX 01 23:07:40
TRACK 07 AUDIO
TITLE "8 Choral Cantatas No.6 =Vom Himmel hoch=-Choral"
PERFORMER "Mendelssohn"
FLAGS DCP
INDEX 01 25:14:40
TRACK 08 AUDIO
TITLE "8 Choral Cantatas No.6 =Vom Himmel hoch=-Aria"
PERFORMER "Mendelssohn"
FLAGS DCP
INDEX 01 25:49:40
TRACK 09 AUDIO
TITLE "8 Choral Cantatas No.6 =Vom Himmel hoch=-Arioso"
PERFORMER "Mendelssohn"
FLAGS DCP
INDEX 01 29:09:18
TRACK 10 AUDIO
TITLE "8 Choral Cantatas No.6 =Vom Himmel hoch=-Schlusschor"
PERFORMER "Mendelssohn"
FLAGS DCP
INDEX 01 30:03:53
TRACK 11 AUDIO
TITLE "8 Choral Cantatas No.7 =Wer nur den lieben Gott lässt walten=-Choral"
PERFORMER "Mendelssohn"
FLAGS DCP
INDEX 01 31:47:09
TRACK 12 AUDIO
TITLE "8 Choral Cantatas No.7 =Wer nur den lieben Gott lässt walten=-Choral"
PERFORMER "Mendelssohn"
FLAGS DCP
INDEX 01 32:42:09
TRACK 13 AUDIO
TITLE "8 Choral Cantatas No.7 =Wer nur den lieben Gott lässt walten=-Arie"
PERFORMER "Mendelssohn"
FLAGS DCP
INDEX 01 36:25:35
TRACK 14 AUDIO
TITLE "8 Choral Cantatas No.7 =Wer nur den lieben Gott lässt walten=-Choral"
PERFORMER "Mendelssohn"
FLAGS DCP
INDEX 01 39:29:35
TRACK 15 AUDIO
TITLE "8 Choral Cantatas No.8 =Wir glauben all an einen Gott=-Wir glauben all an ein..."
PERFORMER "Mendelssohn"
FLAGS DCP
INDEX 01 41:31:34
TRACK 16 AUDIO
TITLE "8 Choral Cantatas No.8 =Wir glauben all an einen Gott=-Wir glauben auch an Je..."
PERFORMER "Mendelssohn"
FLAGS DCP
INDEX 01 43:42:01
TRACK 17 AUDIO
TITLE "8 Choral Cantatas No.8 =Wir glauben all an einen Gott=-Wir glauben an den Hei..."
PERFORMER "Mendelssohn"
FLAGS DCP
INDEX 01 45:40:31
TRACK 18 AUDIO
TITLE "8 Choral Cantatas =Herr Gott,dich loben wir="
PERFORMER "Mendelssohn"
FLAGS DCP
INDEX 01 47:38:44

CD4

REM GENRE Choral
REM DATE 2002
REM DISCID F10FD610
REM COMMENT "ExactAudioCopy v1.0b3"
PERFORMER "Mendelssohn"
TITLE "Hymne Op.96 & Lauda Sion Op.73, Matt CD4"
FILE "Mendelssohn - Hymne Op.96 & Lauda Sion Op.73, Matt CD4.ape" WAVE
TRACK 01 AUDIO
TITLE "Hymne-Drei geistliche Lieder und Fuge Op.96 - I. Hymne; ''Lass, o Herr, mich ..."
PERFORMER "Mendelssohn"
FLAGS DCP
INDEX 01 00:00:00
TRACK 02 AUDIO
TITLE "Hymne-Drei geistliche Lieder und Fuge Op.96 - II. Choral; ''Deines Kind's Geb..."
PERFORMER "Mendelssohn"
FLAGS DCP
INDEX 01 04:21:25
TRACK 03 AUDIO
TITLE "Hymne-Drei geistliche Lieder und Fuge Op.96 - III. Herr, wir trau'n auf deine..."
PERFORMER "Mendelssohn"
FLAGS DCP
INDEX 01 06:07:45
TRACK 04 AUDIO
TITLE "Hymne-Drei geistliche Lieder und Fuge Op.96 - IV. Fuga; ''Lasst sein heilig L..."
PERFORMER "Mendelssohn"
FLAGS DCP
INDEX 01 09:43:24
TRACK 05 AUDIO
TITLE "Hymne ''Hör mein Bitten'' für gemischten Chor, Soli und Orchester"
PERFORMER "Mendelssohn"
FLAGS DCP
INDEX 01 13:30:53
TRACK 06 AUDIO
TITLE "Kyrie in minor für gemischten Chor, Soli und Orchester"
PERFORMER "Mendelssohn"
FLAGS DCP
INDEX 01 24:15:06
TRACK 07 AUDIO
TITLE "Lauda Sion Op.73 - I. Coro"
PERFORMER "Mendelssohn"
FLAGS DCP
INDEX 01 34:43:20
TRACK 08 AUDIO
TITLE "Lauda Sion Op.73 - II. Coro"
PERFORMER "Mendelssohn"
FLAGS DCP
INDEX 01 39:01:10
TRACK 09 AUDIO
TITLE "Lauda Sion Op.73 - III. Soprano solo e Coro"
PERFORMER "Mendelssohn"
FLAGS DCP
INDEX 01 41:10:10
TRACK 10 AUDIO
TITLE "Lauda Sion Op.73 - IV. Quartetto"
PERFORMER "Mendelssohn"
FLAGS DCP
INDEX 01 43:24:03
TRACK 11 AUDIO
TITLE "Lauda Sion Op.73 - V. Coro"
PERFORMER "Mendelssohn"
FLAGS DCP
INDEX 01 47:14:47
TRACK 12 AUDIO
TITLE "Lauda Sion Op.73 - VI. Coro"
PERFORMER "Mendelssohn"
FLAGS DCP
INDEX 01 49:24:28
TRACK 13 AUDIO
TITLE "Lauda Sion Op.73 - VII. Soprano Solo"
PERFORMER "Mendelssohn"
FLAGS DCP
INDEX 01 51:32:04
TRACK 14 AUDIO
TITLE "Lauda Sion Op.73 - VIII. Soli e Coro"
PERFORMER "Mendelssohn"
FLAGS DCP
INDEX 01 53:53:34
TRACK 15 AUDIO
TITLE "Lauda Sion Op.73 - IX. Ecce panis"
PERFORMER "Mendelssohn"
FLAGS DCP
INDEX 01 56:29:18
TRACK 16 AUDIO
TITLE "Tu es Petrus Op.111 für gemischten Chor, Soli und Orchester"
PERFORMER "Mendelssohn"
FLAGS DCP
INDEX 01 61:13:68

CD5

REM GENRE Chorus
REM DATE 2002
REM DISCID B40E5B0D
REM COMMENT "ExactAudioCopy v1.0b3"
PERFORMER "Mendelssohn"
TITLE "Magnificat & Gloria, Matt CD5"
FILE "Mendelssohn - Magnificat & Gloria, Matt CD5.ape" WAVE
TRACK 01 AUDIO
TITLE "Magnificat, for mixed choir, soloists & organ - I. Magnificat"
PERFORMER "Mendelssohn"
FLAGS DCP
INDEX 01 00:00:00
TRACK 02 AUDIO
TITLE "Magnificat, for mixed choir, soloists & organ - II. Quia respexit"
PERFORMER "Mendelssohn"
FLAGS DCP
INDEX 01 04:34:40
TRACK 03 AUDIO
TITLE "Magnificat, for mixed choir, soloists & organ - III. Et misericordia"
PERFORMER "Mendelssohn"
FLAGS DCP
INDEX 01 07:31:21
TRACK 04 AUDIO
TITLE "Magnificat, for mixed choir, soloists & organ - IV. Fecit potentiam"
PERFORMER "Mendelssohn"
FLAGS DCP
INDEX 01 11:18:36
TRACK 05 AUDIO
TITLE "Magnificat, for mixed choir, soloists & organ - V. Deposuit potentes"
PERFORMER "Mendelssohn"
FLAGS DCP
INDEX 01 15:36:42
TRACK 06 AUDIO
TITLE "Magnificat, for mixed choir, soloists & organ - VI. Gloria patri"
PERFORMER "Mendelssohn"
FLAGS DCP
INDEX 01 21:05:11
TRACK 07 AUDIO
TITLE "Magnificat, for mixed choir, soloists & organ - VII. Sicut erat"
PERFORMER "Mendelssohn"
FLAGS DCP
INDEX 01 26:10:32
TRACK 08 AUDIO
TITLE "Gloria, [1822] for mixed choir, soloists & organ - I. Gloria"
PERFORMER "Mendelssohn"
FLAGS DCP
INDEX 01 29:48:21
TRACK 09 AUDIO
TITLE "Gloria, [1822] for mixed choir, soloists & organ - II. Laudamus te"
PERFORMER "Mendelssohn"
FLAGS DCP
INDEX 01 34:13:21
TRACK 10 AUDIO
TITLE "Gloria, [1822] for mixed choir, soloists & organ - III. Gratias agimus tibi"
PERFORMER "Mendelssohn"
FLAGS DCP
INDEX 01 44:31:15
TRACK 11 AUDIO
TITLE "Gloria, [1822] for mixed choir, soloists & organ - IV. Domine Deus"
PERFORMER "Mendelssohn"
FLAGS DCP
INDEX 01 48:52:47
TRACK 12 AUDIO
TITLE "Gloria, [1822] for mixed choir, soloists & organ - V. Qui tollis peccata mundi"
PERFORMER "Mendelssohn"
FLAGS DCP
INDEX 01 52:30:31
TRACK 13 AUDIO
TITLE "Gloria, [1822] for mixed choir, soloists & organ - VI. Quoniam tu solus sanctus"
PERFORMER "Mendelssohn"
FLAGS DCP
INDEX 01 57:08:16

CD6

REM GENRE Chorus
REM DATE 2002
REM DISCID E80E220F
REM COMMENT "ExactAudioCopy v1.0b3"
PERFORMER "Mendelssohn"
TITLE "Hora est, Te Deum & Ave Maria, Matt CD6"
FILE "Mendelssohn - Hora est, Te Deum & Ave Maria, Matt CD6.ape" WAVE
TRACK 01 AUDIO
TITLE "Hora est [1828] for four 4-part mixed choirs & organ"
PERFORMER "Mendelssohn"
FLAGS DCP
INDEX 01 00:00:00
TRACK 02 AUDIO
TITLE "Te Deum à 4 for four 4-part mixed choirs, soloists & organ]"
PERFORMER "Mendelssohn"
FLAGS DCP
INDEX 01 08:45:19
TRACK 03 AUDIO
TITLE "Ave Maria Op.23 for 8-part mixed choir & 8 soloists"
PERFORMER "Mendelssohn"
FLAGS DCP
INDEX 01 17:26:45
TRACK 04 AUDIO
TITLE "Te Deum à 8 for soloists, 2 4-part mixed choirs & organ - I. Te Deum laudamus"
PERFORMER "Mendelssohn"
FLAGS DCP
INDEX 01 25:25:50
TRACK 05 AUDIO
TITLE "Te Deum à 8 for soloists, 2 4-part mixed choirs & organ - II. Te aeternum pa..."
PERFORMER "Mendelssohn"
FLAGS DCP
INDEX 01 28:28:21
TRACK 06 AUDIO
TITLE "Te Deum à 8 for soloists, 2 4-part mixed choirs & organ - III. Tibi ommnes a..."
PERFORMER "Mendelssohn"
FLAGS DCP
INDEX 01 30:50:19
TRACK 07 AUDIO
TITLE "Te Deum à 8 for soloists, 2 4-part mixed choirs & organ - IV. Tibi cherubim"
PERFORMER "Mendelssohn"
FLAGS DCP
INDEX 01 33:10:44
TRACK 08 AUDIO
TITLE "Te Deum à 8 for soloists, 2 4-part mixed choirs & organ - V. Te gloriosus"
PERFORMER "Mendelssohn"
FLAGS DCP
INDEX 01 36:22:68
TRACK 09 AUDIO
TITLE "Te Deum à 8 for soloists, 2 4-part mixed choirs & organ - VI. Patrem immensae"
PERFORMER "Mendelssohn"
FLAGS DCP
INDEX 01 39:34:55
TRACK 10 AUDIO
TITLE "Te Deum à 8 for soloists, 2 4-part mixed choirs & organ - VII. Tu rex gloriae"
PERFORMER "Mendelssohn"
FLAGS DCP
INDEX 01 41:40:73
TRACK 11 AUDIO
TITLE "Te Deum à 8 for soloists, 2 4-part mixed choirs & organ - VIII. Te ergo quae..."
PERFORMER "Mendelssohn"
FLAGS DCP
INDEX 01 44:57:73
TRACK 12 AUDIO
TITLE "Te Deum à 8 for soloists, 2 4-part mixed choirs & organ - IX. Salvum fac pop..."
PERFORMER "Mendelssohn"
FLAGS DCP
INDEX 01 47:44:20
TRACK 13 AUDIO
TITLE "Te Deum à 8 for soloists, 2 4-part mixed choirs & organ - X. Per singulos"
PERFORMER "Mendelssohn"
FLAGS DCP
INDEX 01 49:56:57
TRACK 14 AUDIO
TITLE "Te Deum à 8 for soloists, 2 4-part mixed choirs & organ - XI. Dignare"
PERFORMER "Mendelssohn"
FLAGS DCP
INDEX 01 52:04:22
TRACK 15 AUDIO
TITLE "Te Deum à 8 for soloists, 2 4-part mixed choirs & organ - XII. Fiat miserico..."
PERFORMER "Mendelssohn"
FLAGS DCP
INDEX 01 55:49:04

CD7

REM GENRE Choral
REM DATE 2002
REM DISCID B60C4B0F
REM COMMENT "ExactAudioCopy v1.0b3"
PERFORMER "Mendelssohn"
TITLE "Drei Kirchenmusiken Op.23 & Drei Motetten Op.69, Matt CD7"
FILE "Mendelssohn - Drei Kirchenmusiken Op.23 & Drei Motetten Op.69, Matt CD7.ape" WAVE
TRACK 01 AUDIO
TITLE "Drei Kirchenmusiken Op.23 - Aus tiefer Not - I. Choral"
PERFORMER "Mendelssohn"
FLAGS DCP
INDEX 01 00:00:00
TRACK 02 AUDIO
TITLE "Drei Kirchenmusiken Op.23 - Aus tiefer Not - II. Fuge"
PERFORMER "Mendelssohn"
FLAGS DCP
INDEX 01 01:05:00
TRACK 03 AUDIO
TITLE "Drei Kirchenmusiken Op.23 - Aus tiefer Not - III. Arie"
PERFORMER "Mendelssohn"
FLAGS DCP
INDEX 01 05:20:00
TRACK 04 AUDIO
TITLE "Drei Kirchenmusiken Op.23 - Aus tiefer Not - IV. Choral"
PERFORMER "Mendelssohn"
FLAGS DCP
INDEX 01 06:54:67
TRACK 05 AUDIO
TITLE "Drei Kirchenmusiken Op.23 - Aus tiefer Not - V. Choral"
PERFORMER "Mendelssohn"
FLAGS DCP
INDEX 01 08:45:67
TRACK 06 AUDIO
TITLE "Drei Kirchenmusiken Op.23 - Aus tiefer Not - VI. Choral"
PERFORMER "Mendelssohn"
FLAGS DCP
INDEX 01 11:28:67
TRACK 07 AUDIO
TITLE "Drei Kirchenmusiken Op.23 - Mitten wir im Leben sind - VII. Chor"
PERFORMER "Mendelssohn"
FLAGS DCP
INDEX 01 12:41:46
TRACK 08 AUDIO
TITLE "Drei Kirchenmusiken Op.23 - Jesu, meine Zuversicht - I. Choral"
PERFORMER "Mendelssohn"
FLAGS DCP
INDEX 01 20:20:46
TRACK 09 AUDIO
TITLE "Drei Kirchenmusiken Op.23 - Jesu, meine Zuversicht - II. Soli"
PERFORMER "Mendelssohn"
FLAGS DCP
INDEX 01 21:24:46
TRACK 10 AUDIO
TITLE "Drei Kirchenmusiken Op.23 - Jesu, meine Zuversicht - III. Choral"
PERFORMER "Mendelssohn"
FLAGS DCP
INDEX 01 23:21:46
TRACK 11 AUDIO
TITLE "Drei Kirchenmusiken Op.23 - Jesu, meine Zuversicht - IV. Aria"
PERFORMER "Mendelssohn"
FLAGS DCP
INDEX 01 24:12:46
TRACK 12 AUDIO
TITLE "Drei Kirchenmusiken Op.23 - Jesu, meine Zuversicht - V. Fuga"
PERFORMER "Mendelssohn"
FLAGS DCP
INDEX 01 26:12:64
TRACK 13 AUDIO
TITLE "Drei Motetten Op.69 - Herr, nun lässest du deinen Diener"
PERFORMER "Mendelssohn"
FLAGS DCP
INDEX 01 30:39:08
TRACK 14 AUDIO
TITLE "Drei Motetten Op.69 - Jauchzet dem Herrn alle Welt (Psalm 100)"
PERFORMER "Mendelssohn"
FLAGS DCP
INDEX 01 35:44:20
TRACK 15 AUDIO
TITLE "Drei Motetten Op.69 - Mein Herz erhebet Gott (Magnificat)"
PERFORMER "Mendelssohn"
FLAGS DCP
INDEX 01 41:45:08

CD8

REM GENRE Chorus
REM DATE 2002
REM DISCID B408E60C
REM COMMENT "ExactAudioCopy v1.0b3"
PERFORMER "Mendelssohn"
TITLE "3 Psalmen,6 Sprüche & Die Deutsche Liturgie, Matt CD8"
FILE "Mendelssohn - 3 Psalmen,6 Sprüche & Die Deutsche Liturgie, Matt CD8.ape" WAVE
TRACK 01 AUDIO
TITLE "Three Psalms Op.78, for double choir - Warum toben die Heiden (Psalm 2)"
PERFORMER "Mendelssohn"
FLAGS DCP
INDEX 01 00:00:00
TRACK 02 AUDIO
TITLE "Three Psalms Op.78, for double choir - Richte mich Gott (Psalm 43, Erstfassung)"
PERFORMER "Mendelssohn"
FLAGS DCP
INDEX 01 07:31:00
TRACK 03 AUDIO
TITLE "Three Psalms Op.78, for double choir - Mein Gott,warum hast du mich verlassen..."
PERFORMER "Mendelssohn"
FLAGS DCP
INDEX 01 11:32:00
TRACK 04 AUDIO
TITLE "Six Anthems Op.79, for 8-part choir - Advent; ''Lasset uns frohlocken''"
PERFORMER "Mendelssohn"
FLAGS DCP
INDEX 01 19:44:00
TRACK 05 AUDIO
TITLE "Six Anthems Op.79, for 8-part choir - Weihnachten; ''Frohlocket, ihr Völker''"
PERFORMER "Mendelssohn"
FLAGS DCP
INDEX 01 21:33:00
TRACK 06 AUDIO
TITLE "Six Anthems Op.79, for 8-part choir - Neujahr; ''Herr Gott, du bist unsere Zu..."
PERFORMER "Mendelssohn"
FLAGS DCP
INDEX 01 23:08:00
TRACK 07 AUDIO
TITLE "Six Anthems Op.79, for 8-part choir - Passionszeit; ''Herr, gedenke nicht''"
PERFORMER "Mendelssohn"
FLAGS DCP
INDEX 01 26:05:00
TRACK 08 AUDIO
TITLE "Six Anthems Op.79, for 8-part choir - Karfreitag; ''Um unserer Sünden Willen''"
PERFORMER "Mendelssohn"
FLAGS DCP
INDEX 01 27:44:00
TRACK 09 AUDIO
TITLE "Six Anthems Op.79, for 8-part choir - Himmelfährt; 44Erhaben, o Herr''"
PERFORMER "Mendelssohn"
FLAGS DCP
INDEX 01 29:29:00
TRACK 10 AUDIO
TITLE "The German Liturgy, for soloists & two 4-part choirs - I. Kyrie in A"
PERFORMER "Mendelssohn"
FLAGS DCP
INDEX 01 31:04:00
TRACK 11 AUDIO
TITLE "The German Liturgy, for soloists & two 4-part choirs - II. Gloria ''Ehre sei ..."
PERFORMER "Mendelssohn"
FLAGS DCP
INDEX 01 32:19:00
TRACK 12 AUDIO
TITLE "The German Liturgy, for soloists & two 4-part choirs - III. Sanctus ''Heilig,..."
PERFORMER "Mendelssohn"
FLAGS DCP
INDEX 01 36:18:70

CD9

REM GENRE Choral
REM DATE 2002
REM DISCID 81125A1C
REM COMMENT "ExactAudioCopy v1.0b3"
PERFORMER "Mendelssohn"
TITLE "Psalmen, Psalmmotetten, Choralharmonisierungen, Matt CD9"
FILE "Mendelssohn - Psalmen, Psalmmotetten, Choralharmonisierungen, Matt CD9.ape" WAVE
TRACK 01 AUDIO
TITLE "Choral-Harmonisierungen - I. ''Vom Himmel hoch''"
PERFORMER "Mendelssohn"
FLAGS DCP
INDEX 01 00:00:00
TRACK 02 AUDIO
TITLE "Choral-Harmonisierungen - II. ''Das deutsche Gloria''"
PERFORMER "Mendelssohn"
FLAGS DCP
INDEX 01 02:07:00
TRACK 03 AUDIO
TITLE "Choral-Harmonisierungen - III. ''Wie schön leuchtet der Morgenstern'' [Chambe..."
PERFORMER "Mendelssohn"
FLAGS DCP
INDEX 01 05:31:00
TRACK 04 AUDIO
TITLE "Kyrie in C minor [1823] - I. Kyrie eleison"
PERFORMER "Mendelssohn"
FLAGS DCP
INDEX 01 10:24:72
TRACK 05 AUDIO
TITLE "Kyrie in C minor [1823] - II. Christe eleison"
PERFORMER "Mendelssohn"
FLAGS DCP
INDEX 01 14:14:72
TRACK 06 AUDIO
TITLE "Kyrie in C minor [1823] - III. Kyrie eleison"
PERFORMER "Mendelssohn"
FLAGS DCP
INDEX 01 16:59:72
TRACK 07 AUDIO
TITLE "Jube Domne [1822]"
PERFORMER "Mendelssohn"
FLAGS DCP
INDEX 01 22:42:72
TRACK 08 AUDIO
TITLE "Cantique pour l' Église Wallone"
PERFORMER "Mendelssohn"
FLAGS DCP
INDEX 01 29:01:39
TRACK 09 AUDIO
TITLE "Zwei englische Psalmen [Tate] - Psalm 5"
PERFORMER "Mendelssohn"
FLAGS DCP
INDEX 01 30:36:71
TRACK 10 AUDIO
TITLE "Zwei englische Psalmen [Tate] - Psalm 31"
PERFORMER "Mendelssohn"
FLAGS DCP
INDEX 01 33:29:71
TRACK 11 AUDIO
TITLE "Sieben Psalmen [Lobwasser] - Psalm 2"
PERFORMER "Mendelssohn"
FLAGS DCP
INDEX 01 36:00:71
TRACK 12 AUDIO
TITLE "Sieben Psalmen [Lobwasser] - Psalm 24"
PERFORMER "Mendelssohn"
FLAGS DCP
INDEX 01 37:17:71
TRACK 13 AUDIO
TITLE "Sieben Psalmen [Lobwasser] - Psalm 31"
PERFORMER "Mendelssohn"
FLAGS DCP
INDEX 01 38:04:71
TRACK 14 AUDIO
TITLE "Sieben Psalmen [Lobwasser] - Psalm 91"
PERFORMER "Mendelssohn"
FLAGS DCP
INDEX 01 38:56:71
TRACK 15 AUDIO
TITLE "Sieben Psalmen [Lobwasser] - Psalm 93"
PERFORMER "Mendelssohn"
FLAGS DCP
INDEX 01 40:01:14
TRACK 16 AUDIO
TITLE "Sieben Psalmen [Lobwasser] - Psalm 98"
PERFORMER "Mendelssohn"
FLAGS DCP
INDEX 01 40:42:14
TRACK 17 AUDIO
TITLE "Sieben Psalmen [Lobwasser] - Psalm 100"
PERFORMER "Mendelssohn"
FLAGS DCP
INDEX 01 41:44:14
TRACK 18 AUDIO
TITLE "Dreizehn Psalmmotetten N°01 - Ich weiche nicht"
PERFORMER "Mendelssohn"
FLAGS DCP
INDEX 01 42:55:06
TRACK 19 AUDIO
TITLE "Dreizehn Psalmmotetten N°02 - Deine Rede präg ich meinem Herzen ein"
PERFORMER "Mendelssohn"
FLAGS DCP
INDEX 01 45:30:06
TRACK 20 AUDIO
TITLE "Dreizehn Psalmmotetten N°03 - Ich will den Herrn nach seinerGerechtigkeit pr..."
PERFORMER "Mendelssohn"
FLAGS DCP
INDEX 01 48:21:56
TRACK 21 AUDIO
TITLE "Dreizehn Psalmmotetten N°04 - Tag für Tag sei Gott gepriesen"
PERFORMER "Mendelssohn"
FLAGS DCP
INDEX 01 51:01:56
TRACK 22 AUDIO
TITLE "Dreizehn Psalmmotetten N°05 - Gott,du bist unsere Zuversicht"
PERFORMER "Mendelssohn"
FLAGS DCP
INDEX 01 53:53:05
TRACK 23 AUDIO
TITLE "Dreizehn Psalmmotetten N°06 - Die Himmel erzählen die Ehre Gottes (1.Fassung)"
PERFORMER "Mendelssohn"
FLAGS DCP
INDEX 01 58:08:05
TRACK 24 AUDIO
TITLE "Dreizehn Psalmmotetten N°08 - Ein Tag sagt es dem andern"
PERFORMER "Mendelssohn"
FLAGS DCP
INDEX 01 62:17:37
TRACK 25 AUDIO
TITLE "Dreizehn Psalmmotetten N°09 - Er hat der Sonne eine Hütte gemacht (1.Fassung)"
PERFORMER "Mendelssohn"
FLAGS DCP
INDEX 01 65:30:24
TRACK 26 AUDIO
TITLE "Dreizehn Psalmmotetten N°11 - Das Gesetz des Herrn ist ohne Wandel"
PERFORMER "Mendelssohn"
FLAGS DCP
INDEX 01 71:03:24
TRACK 27 AUDIO
TITLE "Dreizehn Psalmmotetten N°12 - Jauchzet Gott, alle Lande"
PERFORMER "Mendelssohn"
FLAGS DCP
INDEX 01 72:43:24
TRACK 28 AUDIO
TITLE "Dreizehn Psalmmotetten N°13 - Gelobet sei Gott"
PERFORMER "Mendelssohn"
FLAGS DCP
INDEX 01 76:38:72REM GENRE Choral

CD10

REM GENRE Choral
REM DATE 2002
REM DISCID E60C7712
REM COMMENT "ExactAudioCopy v1.0b3"
PERFORMER "Mendelssohn"
TITLE "3 Motetten Op 39 & Vespergesang, Matt CD10"
FILE "Mendelssohn - 3 Motetten Op 39 & Vespergesang, Matt CD10.ape" WAVE
TRACK 01 AUDIO
TITLE "Three Motets for Women's Choir & Organ, Op.39 - Veni Domine"
PERFORMER "Mendelssohn"
FLAGS DCP
INDEX 01 00:00:00
TRACK 02 AUDIO
TITLE "Three Motets for Women's Choir & Organ, Op.39 - Laudate Pueri - I. Coro"
PERFORMER "Mendelssohn"
FLAGS DCP
INDEX 01 03:47:00
TRACK 03 AUDIO
TITLE "Three Motets for Women's Choir & Organ, Op.39 - Laudate Pueri - II. Terzetto"
PERFORMER "Mendelssohn"
FLAGS DCP
INDEX 01 07:14:00
TRACK 04 AUDIO
TITLE "Three Motets for Women's Choir & Organ, Op.39 - Surrexit pastor bonus - I. Ch..."
PERFORMER "Mendelssohn"
FLAGS DCP
INDEX 01 09:32:00
TRACK 05 AUDIO
TITLE "Three Motets for Women's Choir & Organ, Op.39 - Surrexit pastor bonus - II. D..."
PERFORMER "Mendelssohn"
FLAGS DCP
INDEX 01 12:10:00
TRACK 06 AUDIO
TITLE "Three Motets for Women's Choir & Organ, Op.39 - Surrexit pastor bonus - III. ..."
PERFORMER "Mendelssohn"
FLAGS DCP
INDEX 01 14:15:14
TRACK 07 AUDIO
TITLE "Hebe deine Augen auf (aus Elias) for 3-part women's choir"
PERFORMER "Mendelssohn"
FLAGS DCP
INDEX 01 17:08:14
TRACK 08 AUDIO
TITLE "O beata et benedicta for 3-part women's choir & organ"
PERFORMER "Mendelssohn"
FLAGS DCP
INDEX 01 18:56:14
TRACK 09 AUDIO
TITLE "Vespergesang ''Adspice domine-Schaue herab'' Op.121 - I. Allegro moderato"
PERFORMER "Mendelssohn"
FLAGS DCP
INDEX 01 21:56:14
TRACK 10 AUDIO
TITLE "Vespergesang ''Adspice domine-Schaue herab'' Op.121 - II + III. Adagio-Con moto"
PERFORMER "Mendelssohn"
FLAGS DCP
INDEX 01 25:18:14
TRACK 11 AUDIO
TITLE "Vespergesang ''Adspice domine-Schaue herab'' Op.121 - IV. Adagio"
PERFORMER "Mendelssohn"
FLAGS DCP
INDEX 01 28:35:27
TRACK 12 AUDIO
TITLE "Vespergesang ''Adspice domine-Schaue herab'' Op.121 - V. Andante"
PERFORMER "Mendelssohn"
FLAGS DCP
INDEX 01 30:17:54
TRACK 13 AUDIO
TITLE "Zwei geistliche Männerchöre Op.115 - I. Beati mortui-Selig sind die Toten"
PERFORMER "Mendelssohn"
FLAGS DCP
INDEX 01 33:24:15
TRACK 14 AUDIO
TITLE "Zwei geistliche Männerchöre Op.115 - II. Periti autem-es strahlen hell die Ge..."
PERFORMER "Mendelssohn"
FLAGS DCP
INDEX 01 36:46:15
TRACK 15 AUDIO
TITLE "Trauergesang Op.116 for 4-part choir (Fassung des Autographs)"
PERFORMER "Mendelssohn"
FLAGS DCP
INDEX 01 39:09:15
TRACK 16 AUDIO
TITLE "Jauchzet dem Herrn alle Welt for 8-part choir"
PERFORMER "Mendelssohn"
FLAGS DCP
INDEX 01 43:05:15
TRACK 17 AUDIO
TITLE "Denn er hat seinen Engeln for 8-part choir"
PERFORMER "Mendelssohn"
FLAGS DCP
INDEX 01 47:33:25
TRACK 18 AUDIO
TITLE "Zum Abendsegen ''Herr, sei gnädig'' for 4-part choir"
PERFORMER "Mendelssohn"
FLAGS DCP
INDEX 01 50:48:46
[teatrix.ru].t21209.torrent 
Торрент: Зарегистрирован [ 2016-03-20 00:50 ] · 0816BA39F73E31C3F33106B30C6A2F840CFF9CF0

Скачать .torrent

Скачать

15 KB

Статус: проверено
Скачан: 0 раз
Размер: 2.33 GB
terms.php



Быстрый ответ

Имя:

      
Для отправки сообщений необходимо включить JavaScript
Показать сообщения:    

Текущее время: 08-Дек 01:16

Часовой пояс: UTC + 3


Вы можете начинать темы
Вы можете отвечать на сообщения
Вы не можете редактировать свои сообщения
Вы не можете удалять свои сообщения
Вы не можете голосовать в опросах
Вы не можете прикреплять файлы к сообщениям
Вы можете скачивать файлы