(Classical, cello) Рахманинов, Прокофьев - Сонаты для виолончели и фортепиано - Александр Русаковский (Alexander Russakovsky), Amber Shay Nicholson - 2014, FLAC (image+.cue) lossless


 

[Цитировать]

Рахманинов, Прокофьев - Сонаты для виолончели и фортепиано - Александр Русаковский (Alexander Russakovsky), Amber Shay Nicholson
Жанр: Classical, cello
Год издания диска: 2014
Издатель (лейбл): Brilliant Classics
Номер по каталогу: 94771
Дата записи: 2012
Аудиокодек: FLAC
Тип рипа: image+.cue
Битрейт аудио: lossless
Продолжительность: 68:56
Источник: собственный рип
Наличие сканов в содержимом раздачи: да
Треклист:
Сергей Рахманинов (1873-1943)
[1]-[4] Соната для виолончели и фортепиано соль минор, Op.19
Петр Чайковский (1840-1893)
[5] Спящая красавица - Pas d'action: Andante cantabile (Act II)
Александр Глазунов (1865-1936)
[6] Sérénade espagnole
Сергей Прокофьев (1891-1953)
[7]-[9] Соната для виолончели и фортепиано до мажор, Op.119
Исполнители:
Alexander Russakovsky cello
Amber Shay Nicholson piano

Лог создания рипа

Exact Audio Copy V1.0 beta 3 from 29. August 2011
EAC extraction logfile from 6. January 2015, 15:51
Alexander Russakovsky, Amber Shay Nicholson / Rachmaninov, Prokofiev - Cello Sonatas
Used drive : HL-DT-STDVDRAM GU70N Adapter: 0 ID: 0
Read mode : Secure
Utilize accurate stream : Yes
Defeat audio cache : Yes
Make use of C2 pointers : No
Read offset correction : 48
Overread into Lead-In and Lead-Out : No
Fill up missing offset samples with silence : Yes
Delete leading and trailing silent blocks : No
Null samples used in CRC calculations : Yes
Used interface : Native Win32 interface for Win NT & 2000
Used output format : User Defined Encoder
Selected bitrate : 128 kBit/s
Quality : High
Add ID3 tag : No
Command line compressor : C:\Program Files (x86)\Exact Audio Copy\Flac\flac.exe
Additional command line options : -V -8 -T "Date=%year%" -T "Genre=%genre%" %source%
TOC of the extracted CD
Track | Start | Length | Start sector | End sector
---------------------------------------------------------
1 | 0:00.00 | 12:29.35 | 0 | 56209
2 | 12:29.35 | 6:53.18 | 56210 | 87202
3 | 19:22.53 | 5:45.18 | 87203 | 113095
4 | 25:07.71 | 11:08.18 | 113096 | 163213
5 | 36:16.14 | 4:24.18 | 163214 | 183031
6 | 40:40.32 | 2:50.18 | 183032 | 195799
7 | 43:30.50 | 11:42.18 | 195800 | 248467
8 | 55:12.68 | 4:58.18 | 248468 | 270835
9 | 60:11.11 | 8:45.00 | 270836 | 310210
Range status and errors
Selected range
Filename C:\temp\Rachmaninov, Prokofiev - Cello Sonatas - Russakovsky, Nicholson\Rachmaninov, Prokofiev - Cello Sonatas.wav
Peak level 100.0 %
Extraction speed 2.2 X
Range quality 100.0 %
Test CRC 40723B10
Copy CRC 40723B10
Copy OK
No errors occurred
AccurateRip summary
Track 1 not present in database
Track 2 not present in database
Track 3 not present in database
Track 4 not present in database
Track 5 not present in database
Track 6 not present in database
Track 7 not present in database
Track 8 not present in database
Track 9 not present in database
None of the tracks are present in the AccurateRip database
End of status report
==== Log checksum 4D96C2B8784647DE639D9303ABA43775D3AFD46309EE6AC884D6997B8C63F841 ====



Показать сообщения:    

Текущее время: 10-Дек 17:48

Часовой пояс: UTC + 3


Вы не можете начинать темы
Вы не можете отвечать на сообщения
Вы не можете редактировать свои сообщения
Вы не можете удалять свои сообщения
Вы не можете голосовать в опросах
Вы не можете прикреплять файлы к сообщениям
Вы не можете скачивать файлы