Подари себе жизнь: Азиза (Эфир от 12.11.2011) [2011 г., Ток-Шоу, Документальный, DVB]


Статистика раздачи [Обновить пиров]
Размер:  1.05 GB   |    Зарегистрирован:  8 месяцев 21 день   |    Скачан:  0 раз

Полного источника не было: Никогда

 
   
 
 
 

[Цитировать]

Подари себе жизнь: Азиза (Эфир от 12.11.2011)
Страна: Россия
Жанр: Ток-Шоу, Документальный
Продолжительность: 00:27:02
Язык: Русский
Год выпуска: 2011 г.
Выпущено: Россия, ВГТРК.
Описание: «Подари себе жизнь» — уникальный проект , в котором звезды российского шоу-бизнеса, кино и спорта пробуют… продлить свою жизнь!
Герои программы проходят комплексное медицинское обследование, и главный врач проекта Татьяна Шаповаленко выносит вердикт: как долго сможет прожить каждый участник проекта, продолжая вести привычный для себя образ жизни.
Затем герою предлагают способ продлить свою жизнь. Для этого ему разрабатывают индивидуальную программу питания, фитнес-упражнений и необходимых процедур. После восьми недель, прожитых согласно профессиональным предписаниям, участника обследуют повторно.
Новый участник проекта "Подари себе жизнь» — певица Азиза.-В этом выпуске: Певица Азиза пытается скрывать свои проблемы за маской роскошной жизни. Тем не менее её здоровье оставляет желать лучшего: висцеральный жир, язвенный гастрит, ослабленный иммунитет и самое страшное - у неё практически отсутствует один межпозвоночный диск, что в будущем может привести к параличу ног. Азиза украла у себя 23 года жизни. Ей необходимы специальная программа питания и физических нагрузок, чтобы поправить здоровье.-Источник: Собственный рип
Доп. информация: Рип чистый. Без посторонних надписей. Выкладывается как есть.

Сэмпл: https://yadi.sk/i/H3C_FC54gmg8Y
Качество: DVB
Контейнер: MPEG-PS
Видео кодек: MPEG2
Аудио кодек: MPEG1
Видео: MPEG2 720x576 (4:3) 25.00fps 5 281 Kbps, 0.509 bit/pixel
Аудио: MPEG1 48000Hz stereo 192 Кбит/сек

Результаты проекта

Известная певица Азиза пришла на программу с серьезными проблемами. О некоторых из них она не знала, другие – старалась не замечать. Обследование, проведенное в Центре восстановительной медицины и реабилитации Минздравсоцразвития России показало, что здоровье певицы вызывает серьезные опасения.-Первая из них – это избыток массы тела. Обследование показало наличие висцерального жира, который скопился во внутренних органах.
Исследование желудка показало наличие тяжелого эрозивного гастрита в предъязвенном состоянии. Это чревато кровотечениями из желудка.
Анализ крови показал, что иммунитет Азизы очень ослаблен. Это грозит не только частыми простудами, которые уже регулярно случаются у певицы, но и онкологическими заболеваниями.-Разрушаем миф о легком майонезе
Первым делом мне пришлось провести ревизию холодильника. Главное, что бросилось мне в глаза – это упаковки «легкого» майонеза. Певица считала, что раз майонез «легкий», он намного безопаснее для организма.
Тогда я взяла два листка бумаги и записала на каждом вещества, которые входят в состав обычного майонеза и его «легкого» аналога. Подсолнечного масла в «легком» действительно меньше. Поэтому он менее калорийный.
Однако для того, чтобы соус сохранил свою консистенцию, которая в обычной рецептуре сохраняется как раз благодаря маслу, в него добавляется масса других веществ. Среди них – эмульгаторы и загуститель альгинат натрия, на который у некоторых людей может быть аллергия.
От большого количества добавок обычно страдает печень. Означает ли это, что замены обычному майонезу нет? Отнюдь! Майонез во многих блюдах можно заменить йогуртом – это и полезнее, и менее калорийно.-Диеты для иммунитета и обмена веществ
Целью диетотерапии как части программы оздоровления Азизы стало улучшение обмена веществ и укрепление иммунитета.
Для укрепления иммунитета очень важны такие микроэлементы, как цинк и селен. Их очень много в орехах, кальмарах (которые, кстати, богаты жирными кислотами). Для ускорения обмена веществ Азизе нужны свекла, которая содержит йод, а также творог и морепродукты.
Из всех вышеупомянутых продуктов можно приготовить очень много блюд. Певице пришлось учить новые рецепты, готовить самой и… привыкать к необычному вкусу. Например, холодный свекольник со сметаной – основной суп для Азизы в эти недели – ей поначалу совсем не понравился.-Итог:
Желание исправить здоровье оказалось сильнее пристрастия к прежней кухне. Певица приучила себя к режиму питания, новому меню и выдержала два месяца строгого контроля за питанием.
Результат оказался впечатляющим: Азизе удалось вернуть 11 из 23 лет. Что будет дальше – зависит от самой певицы.

Скриншоты

Скринлист

MediaInfo

Общее
Полное имя : D:\Раздачи\Азиза\Программы и передачи\Подари себе жизнь - Азиза (2011, DVB, Ток-Шоу, Документальный, Эфир от 12.11.2011) (by Nokia5150).mpg
Формат : MPEG-PS
Размер файла : 1,05 Гбайт
Продолжительность : 27 м.
Режим общего битрейта : Переменный
Общий поток : 5585 Кбит/сек
Видео
Идентификатор : 224 (0xE0)
Формат : MPEG Video
Версия формата : Version 2
Профиль формата : Main@Main
Параметр BVOP формата : Нет
Параметр матрицы формата : По умолчанию
Параметр GOP формата : N=12
Продолжительность : 27 м.
Вид битрейта : Переменный
Битрейт : 5281 Кбит/сек
Максимальный битрейт : 9000 Кбит/сек
Ширина : 720 пикселей
Высота : 576 пикселей
Соотношение сторон : 4:3
Частота кадров : 25,000 кадров/сек
Стандарт вещания : PAL
Цветовое пространство : YUV
Субдискретизация насыщенности : 4:2:0
Битовая глубина : 8 бит
Тип развёртки : Прогрессивная
Метод сжатия : С потерями
Бит/(Пиксели*Кадры) : 0.509
Временной код первого кадра : 00:00:00:00
Оригинал временного кода : Group of pictures header
Размер потока : 1021 Мбайт (95%)
Аудио
Идентификатор : 192 (0xC0)
Формат : MPEG Audio
Версия формата : Version 1
Профиль формата : Layer 2
Продолжительность : 27 м.
Вид битрейта : Постоянный
Битрейт : 192 Кбит/сек
Каналы : 2 канала
Частота : 48,0 КГц
Метод сжатия : С потерями
Размер потока : 37,1 Мбайт (3%)

[teatrix.ru].t21213.torrent 
Торрент: Зарегистрирован [ 2016-03-20 00:50 ] · 48260CD4934C70FBBC619C0B972A97001B52B7D6

Скачать .torrent

Скачать

11 KB

Статус: проверено
Скачан: 0 раз
Размер: 1.05 GB
terms.php



Быстрый ответ

Имя:

      
Для отправки сообщений необходимо включить JavaScript
Показать сообщения:    

Текущее время: 10-Дек 09:55

Часовой пояс: UTC + 3


Вы можете начинать темы
Вы можете отвечать на сообщения
Вы не можете редактировать свои сообщения
Вы не можете удалять свои сообщения
Вы не можете голосовать в опросах
Вы не можете прикреплять файлы к сообщениям
Вы можете скачивать файлы