[TR24][OF] Avi Avital (feat. Venice Baroque Orchestra) - Vivaldi - 2015 (Classical / Mandolin)

DL-List and Torrent activity [Update пиров]
Size:  1007 MB   |    Registered:  7 months 4 days   |    Completed:  0 times

Seeder not seen: Never



Avi Avital
- Год издания: 2015
Жанр: Classical / Mandolin
Издатель (лейбл): Deutsche Grammophon
Продолжительность: 00:51:26
Наличие сканов: Sleeve, Digital Booklet- -
Antonio Lucio Vivaldi (1678-1741)
Concerto in A minor, RV 356 orig. for violin
01. 1. Allegro (2:46)
02. 2. Largo (2:00)
03. 3. Presto (2:21)
Concerto in D major, RV 93 orig. for lute
04. 1. Allegro (3:16)
05. 2. Largo (4:00)
06. 3. Allegro (2:03)
Mandolin Concerto In C Major, RV 425
07. 1. Allegro (2:45)
08. 2. Largo (3:06)
09. 3. Allegro (1:47)
Concerto in C major, RV 443 orig. for flautino
10. Largo (3:33)
Trio Sonata in C major, RV 82 orig. for violin and lute *
11. 1. Allegro non molto (quasi andante) (3:25)
12. 2. Larghetto (3:29)
13. 3. Allegro (2:05)
The Four Seasons - Concerto in G minor, RV 315 “Summer” orig. for violin
14. 1. Allegro non molto (5:14)
15. 2. Adagio e piano - Presto e forte (2:03)
16. 3. Presto (2:53)
Traditional Venetian **
17. La biondina in gondoleta (4:38)
Контейнер: FLAC (*.flac)
Тип рипа: tracks
Разрядность: 24bit / 96kHz
Количество каналов: 2.0
-О релизе
Grammy-nominated classical mandolinist Avi Avital is an artist who relentlessly pushes at boundaries and defies expectations. From Bach to tangos, from Balkan improvisations to Dvořák string quartets, his concert programmes fearlessly and seamlessly transcend musical genres, while his disco graphy demonstrates a masterful versatility. With his current recording project, however, he brings the mandolin “home”, to the music of Antonio Vivaldi, the beloved Venetian composer whose Mandolin Concerto forms the cornerstone – “the Old Testament”, says Avital – of the instrument’s repertoire.
Yet a virtuoso interpretation of the four Vivaldi concertos here recorded – that for mandolin and its sibling for lute, together with two familiar violin concertos in Avital’s own transcriptions – is not enough. For Avital, as both soloist and musical director, recording a Vivaldi album is not an act of passive veneration, but an open-ended invitation to explore the man’s music and his world. On this journey of discovery there are no taboos: much as in Venice itself, the lines between historical practice and contemporary spirit are blurred, the exalted and the profane sit side by side. Avital is dogmatic only in the spirit of tireless experimentation – daring, risking and teasing startling new sounds out of these familiar pieces.
As the recording sessions unfold, it becomes clear that not only historically-informed performance practice, but also the spirit of rock music is at heart of Avital’s interpretative approach. The music-making is bold, personal and immediate. Avital often uses a dif- ferent plectrum or pick for each section of music. His sense of dynamic contrast pushes the limits of the recording engineers’ technical capacities. Tempos are not defined in strict intervals, but remain as dynamic as volume, subject to the ebb and flow of the melodic architecture. Intonation is precise, but tones are occasionally “bent”, as a jazz musician might, to add exotic spice to moments of emotional extreme. The accompanying lute, cello and harpsichord are given freedom to temperamentally punctuate the music’s structure.
What was surprising was how effective "Summer," from "The Four Seasons," sounded on Avital's mandolin . . . The restless heat of the Adagio was perhaps even better expressed by the mandolin, especially with the orchestra's very delicate accompaniment . . . Avital's mandolin gave Vivaldi's Concerto for Lute in D a shimmer of Venetian water you don't hear in the original; the Largo was quick and bittersweet . . . [Vivaldi / Mandolin Concerto]: Avital made the Largo swing and sway . . . Avital showed off his own fleet fingers on his solo encore, the Bulgarian folk dance "Bucimis." The evening closed sweetly with the Largo from Vivaldi's Flautino Concerto in C, Avital taking the solo part on the mandolin and everyone making it sound as if Venice were in the next room. --Jeffrey Gantz, Boston Globe
Accompanied by the talented and prolific Venice Baroque Orchestra, the album offers an enjoyable fifty-odd minutes of virtuoso mandolin playing . . . Avital is unquestionably a fine mandolin player, his tone sweet and fluid, his tempos well judged, neither too breakneck fast nor too maddeningly slack, and his natural affinity for the instrument always in evidence in his intonation and flexibility. I mean, the thing about Avital is that he makes Vivaldi fun again. After so many Vivaldi recordings that all sound alike, it's refreshing to hear Avital's mandolin take on things. His transcriptions are a breath of fresh air, even giving new life to that old chestnut "Summer." Favorites? I must confess to liking all of them. But I especially enjoyed the dreamy "Largos" in RV 356 and RV 318; the zesty opening "Allegro" in RV 318; the entire RV 425, . . . the lovely, delicate "Trio Sonata"; the sweet yet lusty and fanciful spirit Avital brings to the "Summer" concerto (here, you can practically feel the heat rising from the Venetian pavement in the "Adagio"); and the longing melancholy in the final song, sung by Juan Diego Florez to Avital's accompaniment. But, as I say, they all sound fresh and beautiful . . . The engineers have captured the sound of the mandolin pretty well, the instrument very clean, very clear, with excellent transient response, and they have integrated the soloist well within the context of the orchestra. --John J. Puccio, Classical Candor
. . . [this] disc has a great deal of charm, much of which lies in mandolinist Avi Avital's arrangements. In addition to skilfully transcribing each work, . . . he has in most cases also reduced or altered the orchestration, and the wonderful Venice Baroque Orchestra plays with warmth, love, and no particular desire to scratch and scrape its way through the allegros . . . His reading of the A minor violin concerto from "L'estro armonico" that opens the CD is attacked energetically, and the slow movement -- a beauty -- is lyrical and sweet. The presto is fun, with the lower strings an appealing foil for the mandolin. --Robert Levine, ClassicsToday
Avi Avital, Mandolin
Venice Baroque Orchestra
Mahan Esfahani, Harpsichord*
Ophira Zakai, Lute*
Patrick Sepec, Cello*
Juan Diego Flórez, Tenor**
Ivano Zanenghi, Lute**
Daniele Bovo, Cello**
Lorenzo Feder, Harpsichord**
Fabio Tricomi, Guitar**
Recorded: Treviso, Teatro delle Voci, 9–10/2014; Berlin, Meistersaal, 12/2014 (Trio Sonata)

ОтчётыДинамический диапазон

foobar2000 1.2.2 / Dynamic Range Meter 1.1.1
log date: 2015-05-21 00:22:44
Analyzed: Avi Avital, Juan Diego Flórez, Ivano Zanenghi, Daniele Bovo, Lorenzo Feder, Fabio Tricomi / Vivaldi (1)
Avi Avital, Mahan Esfahani, Ophira Zakai, Patrick Sepec / Vivaldi (2-4)
Avi Avital, Venice Baroque Orchestra / Vivaldi (5-17)
DR Peak RMS Duration Track
DR12 -7.25 dB -23.41 dB 4:38 ?-La biondina in gondoleta
DR14 -5.18 dB -22.95 dB 3:25 ?-Trio Sonata In C Major, RV 82: 1. Allegro non molto (quasi andante)
DR14 -9.52 dB -29.21 dB 3:29 ?-Trio Sonata In C Major, RV 82: 2. Larghetto
DR14 -3.22 dB -21.61 dB 2:05 ?-Trio Sonata In C Major, RV 82: 3. Allegro
DR14 -3.11 dB -21.57 dB 2:46 ?-Concerto In A Minor, RV 356: 1. Allegro
DR12 -11.15 dB -29.47 dB 2:00 ?-Concerto In A Minor, RV 356: 2. Largo
DR12 -1.35 dB -19.06 dB 2:21 ?-Concerto In A Minor, RV 356: 3. Presto
DR14 -2.49 dB -21.35 dB 3:16 ?-Concerto In D Major, RV 93: 1. Allegro
DR13 -7.74 dB -26.20 dB 4:00 ?-Concerto In D Major, RV 93: 2. Largo
DR14 -0.49 dB -19.44 dB 2:03 ?-Concerto In D Major, RV 93: 3. Allegro
DR13 -2.60 dB -22.37 dB 2:45 ?-Mandolin Concerto In C Major, RV 425: 1. Allegro
DR15 -15.72 dB -35.25 dB 3:06 ?-Mandolin Concerto In C Major, RV 425: 2. Largo
DR13 -7.37 dB -23.65 dB 1:47 ?-Mandolin Concerto In C Major, RV 425: 3. Allegro
DR12 -10.82 dB -27.93 dB 3:33 ?-Concerto In C Major, RV 443: Largo
DR13 -0.33 dB -20.43 dB 5:14 ?-The Four Seasons - Concerto In G Minor, RV 315, "The Summer": 1. Allegro non molto
DR14 -7.89 dB -30.08 dB 2:03 ?-The Four Seasons - Concerto In G Minor, RV 315, "The Summer": 2. Adagio e piano - Presto e forte
DR13 -1.21 dB -17.83 dB 2:53 ?-The Four Seasons - Concerto In G Minor, RV 315, "The Summer": 3. Presto
Number of tracks: 17
Official DR value: DR13
Samplerate: 96000 Hz
Channels: 2
Bits per sample: 24
Bitrate: 2913 kbps
Codec: FLAC

Скриншот спектра частот

Доп. информация

При скачивании, если необходимо, переименуйте папку, в которой будет находиться альбомБольшая просьба к скачавшим поддерживать раздачу! Помогайте другим, ведь вам тоже может понадобиться помощь!Не забываем говорить "Спасибо"!Комментарии приветствуются!
Torrent: Registered [ 2016-03-20 00:50 ] · 06FB4DDC524EBDA0FC31BB67B8A70B29BD88D8D1

Download .torrent


22 KB

Status: checked
Completed: 0 times
Size: 1007 MB

Quick Reply


Heads necessary to send messages to enable JavaScript
Display posts:    

Current time is: 24-Oct 02:48

All times are UTC + 3

You can post new topics in this forum
You can reply to topics in this forum
You cannot edit your posts in this forum
You cannot delete your posts in this forum
You cannot vote in polls in this forum
You cannot attach files in this forum
You can download files in this forum