[TR24][OF] Piers Lane - Goes to Town - 2013 (Classical / Piano)

DL-List and Torrent activity [Update пиров]
Size:  1.21 GB   |    Registered:  7 months 6 days   |    Completed:  1 time

Seeder not seen: 5 months 10 days



Piers Lane
Goes to Town
-Год издания: 2013 | Жанр: Classical / Piano
Издатель: Hyperion Records | Продолжительность: 01:16:05
Наличие сканов: Sleeve, Digital Booklet- -Piers Lane, piano
Recorded: June 2012 at Potton Hall, Dunwich, Suffolk, United Kingdom
Контейнер: FLAC (*.flac)
Тип рипа: tracks
Разрядность: 24bit / 96kHz
Количество каналов: 2.0

Katharine Parker (1886-1971)
Four Musical Sketches for Piano
01.2. Down Longford Way (2:33)
Alan Lane (1932-2002)
02. 4. Toccata (4:31)
Anthony Doheny (b. 1938)
03. Toccata for Piers Lane (1:53)
John Ireland (1879-1962)
04. Ballerina (4:39)
Johann Sebastian Bach (1685-1750), arr. Dame Myra Hess (1890-1965)
Herz und Mund und Tat und Leben, BWV147
05. 10. Jesu, joy of man's desiring (4:03)
Billy Mayerl (1902-1959)
06. Marigold (2:58)
Léo Delibes (1836-1891), arr. Ernő Dohnányi (1877-1960)
07. Naila Waltz (7:29)
Sergei Rachmaninov (1873-1943)
Six Romances, Op 38
08. 3. Margaritki 'Daisies' (2:32)
Zez Confrey (1895-1971)
09. Dizzy Fingers (1:57)
Mark Saya (b. 1954)
10. Barcarolles (5:42)
Manning Sherwin (1902-1974), arr. Regis Danillon (b. 1949)
11. A nightingale sang in Berkeley Square (3:33)
Francis Poulenc (1899-1963)
12. Nocturne No 4 in C minor 'Bal fantome' (1:36)
Alec Templeton (1910-1963)
Bach goes to town 'Prelude and Fugue in swing'
13. 1. Prelude (1:25)
14. 2. Fugue (1:39)
Arthur Benjamin (1893-1960)
15. Jamaican Rumba (1:01)
Robert Keane (b. 1948)
Save the Animals Suite
16. 3. The Tiger Tango (3:20)
Antony Hopkins (b. 1921)
17. Variations on a well-known theme (14:13)
Sigfrid Karg-Elert (1877-1933)
18. Arabesque No 1 in G flat major 'Filigran', Op 5 (2:57)
Dudley Moore (1935-2002)
19. Beethoven Parody 'And the same to you' (4:28)
Percy Grainger (1882-1961)
20. Irish tune from County Derry (3:36)

О релизе

Piers Lane gambols delightfully through the twentieth century in this album of encores, party pieces and a few pianophile rarities, ranging from Dame Myra Hess’s unforgettable arrangement of Bach’s Jesu, joy of man’s desiring to Dudley Moore’s equally unforgettable Beethoven pastiche.
This album includes first recordings of, among others, John Ireland’s Ballerina and Mark Saya’s Offenbach/Chopin conflation Barcarolles. A number of these pieces are by Australian composers who wrote for Piers himself. His unbounded virtuosity and joy in the music is clearly an inspiration, and is evident throughout the recording.
'This superbly recorded disc (played on a gorgeously voiced Steinway) is Lane's love letter to the piano. I wish more pianists would share their guilty pleasures like this' (Gramophone)
'Lane in wonderful, debonair mode here, sparkling through a personal encore selection from Jamaican Rumba to a Toccata by his own father, and from Myra Hess to Dudley Moore' (BBC Music Magazine)
'Puts smiles on our faces and tears in our eyes … Katharine Parker's Down Longford Way grows from an Ivor Novello-like charm into an opulently Romantic piece of striking contrast and colour, indeed the perfect choice with which to launch the disc. The playing throughout is first-class: witty where it needs to be, reflective and joyous elsewhere … Lane is a dynamic, insightful pianist who is able to bring a new perspective to the repertoire. His renditions of the Grainger and Bach / Hess pieces are quite beautiful, and in Mayerl's Marigold I can hardly imagine a more heartfelt account' (International Record Review)
'Piers Lane, one of the most versatile pianists around, presents many sides of himself in a selection of pieces that may seem topsy-turvy, incongruous even, but there are some wonderful and brilliant things here to be re-united with or discovered, and each piece is superbly played, with complete identification, and beautifully recorded too—just like a piano should sound, with all of Lane’s colours, dynamics and inflections faithfully relayed' (ClassicalSource.com)

ОтчётыДинамический диапазон

foobar2000 1.2.2 / Dynamic Range Meter 1.1.1
log date: 2015-05-20 20:55:06
Analyzed: Piers Lane / Piers Lane: Goes to Town
DR Peak RMS Duration Track
DR13 -3.51 dB -24.00 dB 2:33 ?-Four Musical Sketches for Piano - 2. Down Longford Way
DR12 -2.35 dB -19.40 dB 4:31 ?-Suite - 4. Toccata
DR12 -4.07 dB -20.50 dB 1:53 ?-Toccata for Piers Lane
DR13 -3.65 dB -26.19 dB 4:39 ?-Ballerina
DR14 -4.54 dB -27.39 dB 4:03 ?-Herz und Mund und Tat und Leben, BWV147 - 10. Jesu, joy of man's desiring
DR12 -8.88 dB -26.40 dB 2:58 ?-Marigold
DR13 -0.10 dB -19.20 dB 7:29 ?-Naila Waltz
DR13 -11.97 dB -30.45 dB 2:32 ?-Six Romances, Op 38 - 3. Margaritki 'Daisies'
DR13 -8.13 dB -24.06 dB 1:57 ?-Dizzy Fingers
DR16 -7.00 dB -28.40 dB 5:42 ?-Barcarolles
DR12 -5.61 dB -24.40 dB 3:33 ?-A nightingale sang in Berkeley Square
DR13 -14.10 dB -33.44 dB 1:36 ?-Nocturne No 4 in C minor 'Bal fantome'
DR11 -6.64 dB -21.01 dB 1:25 ?-Bach goes to town 'Prelude and Fugue in swing' - 1. Prelude
DR11 -4.97 dB -20.31 dB 1:39 ?-Bach goes to town 'Prelude and Fugue in swing' - 2. Fugue
DR11 -9.37 dB -25.47 dB 1:01 ?-Jamaican Rumba
DR14 -3.61 dB -23.65 dB 3:20 ?-Save the Animals Suite - 3. The Tiger Tango
DR14 -0.60 dB -20.15 dB 14:13 ?-Variations on a well-known theme
DR14 -4.78 dB -24.92 dB 2:57 ?-Arabesque No 1 in G flat major 'Filigran', Op 5
DR12 -0.47 dB -17.41 dB 4:28 ?-Beethoven Parody 'And the same to you'
DR13 -5.93 dB -25.31 dB 3:36 ?-Irish tune from County Derry
Number of tracks: 20
Official DR value: DR13
Samplerate: 96000 Hz
Channels: 2
Bits per sample: 24
Bitrate: 2183 kbps
Codec: FLAC

Скриншот спектра частот

Доп. информация

При скачивании, если необходимо, переименуйте папку, в которой будет находиться альбомБольшая просьба к скачавшим поддерживать раздачу! Помогайте другим, ведь вам тоже может понадобиться помощь!Не забываем говорить "Спасибо"!Комментарии приветствуются!
Torrent: Registered [ 2016-03-20 00:49 ] · 7F184C09E1A22F5B58D44514373035A0E26DE48D

Download .torrent


14 KB

Status: checked
Completed: 1 times
Size: 1.21 GB

Quick Reply


Heads necessary to send messages to enable JavaScript
Display posts:    

Current time is: 26-Oct 14:19

All times are UTC + 3

You can post new topics in this forum
You can reply to topics in this forum
You cannot edit your posts in this forum
You cannot delete your posts in this forum
You cannot vote in polls in this forum
You cannot attach files in this forum
You can download files in this forum