[TR24][OF] Alison Balsom (feat. The English Concert, Trevor Pinnock) - Sound the Trumpet: Royal Music of Purcell and Handel - 2012/2014 (Classical)


Статистика раздачи [Обновить пиров]
Размер:  1.15 GB   |    Зарегистрирован:  8 месяцев 16 дней   |    Скачан:  0 раз

Полного источника не было: Никогда

 
   
 
 
 

[Цитировать]

Alison Balsom
Sound the Trumpet:
Royal Music of Purcell and Handel
-Год издания/переиздания диска: 2012/2014
Жанр: Classical | Издатель (лейбл): Warner Classics
Продолжительность: 01:06:19 | Наличие сканов: Sleeve- -Контейнер: FLAC (*.flac) | Тип рипа: tracks
Разрядность: 24bit /96kHz | Количество каналов: 2.0-Alison Balsom, trumpet
The English Concert
-Треклист
George Frideric Handel (1685-1759)
Amidigi di Gaula, HWV 11
01.Act 3: Sento la goia (4:44)
Henry Purcell (1659-1695)
King Arthur Suite, Z. 628
02. Act 1: Overture (3:37)
03. Act 1: Come if you dare (3:02)
04. Act 5: Symphony (1:55)
05. Act 2: Shepherd, Shepherd, Leave Decoying" (1:48)
06. Act 5: Round thy shores (1:11)
07. Act 5: Trumpet Tune (0:47)
08. Act 5: Fairest isle (2:03)
George Frideric Handel
Atalanta, HWV 35
09. Overture (4:02)
Birthday Ode for Queen Anne, HWV 74
10. "Eternal Source of Light Divine" (countertenor) (3:34)
Henry Purcell
The Fairy Queen, Z. 629 - Suite of Musicks and Dances
11. Act 4: Symphony (6:28)
12. Rondo (Second Musick) (1:41)
13. Act 1: Jig (1:06)
14. Act 5: Prelude (1:03)
15. Act 5: Chaconne and Chorus (3:58)
Come Ye Sons of Art, Z. 323
16. Sound the trumpet (countertenor) (2:36)
George Frideric Handel, arr. Trevor Pinnock
Water Music, Suite in D Major, HWV 349
17. I. Overture (1:44)
18. II. Gigue (Allegro) (1:47)
19. III. Minuet (Aria) (1:50)
20. IV. Bourrée (1:00)
21. V. March No. 2 (Partenope, HWV 27) (1:07)
Henry Purcell
The Fairy Queen, Z. 629
22. Act 5: "The plaint" (7:45)
George Frideric Handel
Oboe Concerto No. 1 in B-Flat Major
23. I. Adagio (1:59)
24. II. Allegro (1:41)
25. III. Siciliana (Largo) (2:13)
26. IV. Vivace (1:38)

О релизе


In the year of Queen Elizabeth II’s Diamond Jubilee, Alison Balsom celebrates the heroic era of the Baroque trumpet in works by George Frideric Handel (1685-1759) and Henry Purcell (1658 or 1659-1695), whose anthems, odes, sinfonias and operas have provided the music for numerous royal celebrations from their own day to the present.
Joining forces with Trevor Pinnock, harpsichordist, conductor and pioneer of historical performance, and with the English Concert orchestra that he founded, Balsom demonstrates the versatility and expressive power of her valve-less instrument in original works and new arrangements. These include Purcell’s Sound the trumpet and Handel’s Eternal Source of light divine in duet with countertenor Iestyn Davies and Purcell’s The Plaint from The Fairy Queen in duet with soprano Lucy Crowe. Further repertoire includes suites from Purcell’s semi-operas King Arthur (1691) and The Fairy Queen (1692) in new arrangements by Balsom and Pinnock, Handel’s Water Piece in D Major HWV 341 and his Oboe Concerto No. 1 in B-flat Major HWV 301 transposed into C Major.
Alison Balsom is one of today’s most popular classical musicians. Having managed to break through to the mainstream without abandoning her musical integrity, she continues to draw ever-wider audiences for her performances and recordings of diverse repertoire.
British trumpeter Alison Balsom has been popular from the start, and she seems to gain strength as she tackles each new project and expands her range. Here she plays a Baroque trumpet (apparently a natural trumpet with finger holes but no keys) and is accompanied by the period-instrument English Concert under its veteran conductor Trevor Pinnock. They worked together on most of the arrangements of pieces by Handel and Purcell, and the results in this well-worn British musical ground are nothing short of stunning. The variety of timbres that emerge from Balsom's instrument is nothing short of stunning, and the place to start in sampling it is with the three vocal duets, two with the fine countertenor Iestyn Davies and one with soprano Lucy Crowe. These give the uncanny effect of almost hearing two vocal parts that so many instrumentalists aim for in arrangements like this, but that so few actually achieve. Balsom has always been a charismatic player with an attractive tone, and an anthology of her earlier recordings is available. But the way she's going, it makes sense to keep up with the state of her art. --James Manheim
Alison Balsom, trumpet
Iestyn Davies, countertenor
Lucy Crowe, soprano
The English Concert
Trevor Pinnock, harpsichord and organ

ОтчётыДинамический диапазон

foobar2000 1.2.2 / Dynamic Range Meter 1.1.1
log date: 2015-05-13 22:41:56
--------------------------------------------------------------------------------
Analyzed: Alison Balsom, Iestyn Davies, The English Concert, Trevor Pinnock / Sound the Trumpet: Royal Music of Purcell and Handel (1-2)
Alison Balsom, Lucy Crowe, The English Concert, Trevor Pinnock / Sound the Trumpet: Royal Music of Purcell and Handel (3)
Alison Balsom, The English Concert, Trevor Pinnock / Sound the Trumpet: Royal Music of Purcell and Handel (4-26)
--------------------------------------------------------------------------------
DR Peak RMS Duration Track
--------------------------------------------------------------------------------
DR11 -7.42 dB -21.64 dB 3:34 ?-Birthday Ode for Queen Anne, HWV 74: "Eternal Source of Light Divine" (countertenor)
DR14 -0.03 dB -19.43 dB 2:36 ?-Come Ye Sons of Art, Z. 323: Sound the trumpet (countertenor)
DR16 -0.06 dB -21.38 dB 7:45 ?-The Fairy Queen, Z. 629, Act 5: "The plaint"
DR14 -3.22 dB -21.77 dB 4:44 ?-Amidigi di Gaula, HWV 11, Act 3: Sento la goia
DR12 -9.11 dB -24.04 dB 3:37 ?-King Arthur Suite, Z. 628, Act 1: Overture
DR14 -3.93 dB -21.61 dB 3:02 ?-King Arthur Suite, Z. 628, Act 1: Come if you dare
DR10 -9.16 dB -24.07 dB 1:55 ?-King Arthur Suite, Z. 628, Act 5: Symphony
DR12 -11.04 dB -26.66 dB 1:48 ?-King Arthur Suite, Z. 628, Act 2: Shepherd, Shepherd, Leave Decoying"
DR11 -14.42 dB -27.92 dB 1:11 ?-King Arthur Suite, Z. 628, Act 5: Round thy shores
DR12 -3.38 dB -17.34 dB 0:47 ?-King Arthur Suite, Z. 628, Act 5: Trumpet Tune
DR11 -9.26 dB -24.97 dB 2:03 ?-King Arthur Suite, Z. 628, Act 5: Fairest isle
DR14 -3.23 dB -20.72 dB 4:02 ?-Atalanta, HWV 35: Overture
DR13 -1.21 dB -19.99 dB 6:28 ?-The Fairy Queen, Z. 629 - Suite of Musicks and Dances, Act 4: Symphony
DR11 -12.87 dB -26.24 dB 1:41 ?-The Fairy Queen, Z. 629 - Suite of Musicks and Dances: Rondo (Second Musick)
DR12 -7.80 dB -23.36 dB 1:06 ?-The Fairy Queen, Z. 629 - Suite of Musicks and Dances, Act 1: Jig
DR13 -14.72 dB -33.46 dB 1:03 ?-The Fairy Queen, Z. 629 - Suite of Musicks and Dances, Act 5: Prelude
DR14 -5.30 dB -23.27 dB 3:58 ?-The Fairy Queen, Z. 629 - Suite of Musicks and Dances, Act 5: Chaconne and Chorus
DR12 -3.99 dB -21.22 dB 1:44 ?-Water Music, Suite in D Major, HWV 349: I. Overture
DR14 -4.70 dB -22.29 dB 1:47 ?-Water Music, Suite in D Major, HWV 349: II. Gigue (Allegro)
DR12 -9.94 dB -26.88 dB 1:50 ?-Water Music, Suite in D Major, HWV 349: III. Minuet (Aria)
DR13 -6.71 dB -22.75 dB 1:00 ?-Water Music, Suite in D Major, HWV 349: IV. Bourrée
DR11 -5.14 dB -21.49 dB 1:07 ?-Water Music, Suite in D Major, HWV 349: V. March No. 2 (Partenope, HWV 27)
DR11 -9.56 dB -24.07 dB 1:59 ?-Oboe Concerto No. 1 in B-Flat Major: I. Adagio
DR12 -7.72 dB -23.46 dB 1:41 ?-Oboe Concerto No. 1 in B-Flat Major: II. Allegro
DR11 -11.70 dB -26.80 dB 2:13 ?-Oboe Concerto No. 1 in B-Flat Major: III. Siciliana (Largo)
DR12 -7.31 dB -22.39 dB 1:38 ?-Oboe Concerto No. 1 in B-Flat Major: IV. Vivace
--------------------------------------------------------------------------------
Number of tracks: 26
Official DR value: DR12
Samplerate: 96000 Hz
Channels: 2
Bits per sample: 24
Bitrate: 2503 kbps
Codec: FLAC
================================================================================

Скриншот спектра частот

Доп. информация

При скачивании, если необходимо, переименуйте папку, в которой будет находиться альбомБольшая просьба к скачавшим поддерживать раздачу! Помогайте другим, ведь вам тоже может понадобиться помощь!Не забываем говорить "Спасибо"!Комментарии приветствуются!
Alison Balsom Hi-Res
[teatrix.ru].t21233.torrent 
Торрент: Зарегистрирован [ 2016-03-20 00:49 ] · B0417D6F1649028BBC35EF19A5E84DA9857D9CD1

Скачать .torrent

Скачать

15 KB

Статус: проверено
Скачан: 0 раз
Размер: 1.15 GB
terms.php



Быстрый ответ

Имя:

      
Для отправки сообщений необходимо включить JavaScript
Показать сообщения:    

Текущее время: 05-Дек 07:26

Часовой пояс: UTC + 3


Вы можете начинать темы
Вы можете отвечать на сообщения
Вы не можете редактировать свои сообщения
Вы не можете удалять свои сообщения
Вы не можете голосовать в опросах
Вы не можете прикреплять файлы к сообщениям
Вы можете скачивать файлы