Иванов (Олег Ефремов) [1981, Телеспектакль, Драма, TVRip] МХАТ им. М. Горького


 

[Цитировать]

Иванов
Название театра: МХАТ им. М. Горького
Жанр: Телеспектакль, Драма
Год выпуска: 1981
Продолжительность: 01:21:18 + 01:27:43
Перевод: Не требуется
Cубтитры: нет
Оригинальная аудиодорожка: нет
Режиссёр: Олег Ефремов
В ролях: Иннокентий Смоктуновский, Екатерина Васильева, Марк Прудкин, Евгений Киндинов, Ксения Минина, Виктор Сергачёв, Андрей Попов, Евгения Ханаева, Елена Кондратова, Вячеслав Невинный, Ангелина Степанова, Юрий Ларионов, Наталья Головко, Тамара Миронова, Елена Наумкина, Софья Гаррель, Галина Шостко, Татьяна Бронзова, Кюнна Игнатова, Алексей Мяздриков, Владимир Привальцев, Борис Дьяченко, Николай Никольский, Юрий Меншагин.
Описание: Автор: А. П. Чехов.
Непонятный даже для самого себя кризис испытывает помещик Николай Иванов. «Еще года нет, как был здоров и силен, был бодр, неутомим, горяч… А теперь… утомился, не верю… Ничего я не жду, ничего не жаль…».
То, что окружает героя – смертельно больная нелюбимая жена, долги, отсутствие денег, сплетни соседей – это только усугубляет душевное беспокойство. Но есть проблеск в его душе – внезапная любовь юной Саши.
На прямой вопрос, про что этот спектакль, Олег Ефремов ответил – про депрессию. О том, как человек в неё впадает, и как из неё выходит. Этот спектакль – одна из самых выстраданных работ режиссера.
Много лет назад перед возвращением из Америки на родину Станиславский спросил – можно ли будет играть в новой Москве Чехова. На что Немирович-Данченко ответил – «до недоуменности не созвучен бодрящей эпохе». Особенно «Иванов».
Качество видео: TVRip
Формат видео: AVI
Видео: 480x360 (1.32:1), 25 fps, XviD MPEG-4 ~830 kbps avg, 0.18 bit/pixel
Аудио: 48 kHz, MPEG Layer 3, 2 ch, ~320.00 kbps avg

MediaInfo

Общее
Полное имя : Ivanov.1981.TVRip.avi
Format : AVI
Format/Info : Audio Video Interleave
File size : 483 MiB
Duration : 81mn 18s
Overall bit rate : 1 947 Kbps
Writing application : VirtualDubModRus 1.5.10.2 (build 2542/release)
Writing library : VirtualDub build 32842/release
Video
ID : 0
Format : MPEG-4 Visual
Format profile : Advanced Simple@L5
Format settings, BVOP : 2
Format settings, QPel : No
Format settings, GMC : No warppoints
Format settings, Matrix : Default (H.263)
Muxing mode : Packed bitstream
Codec ID : XVID
Codec ID/Hint : XviD
Duration : 81mn 18s
Bit rate : 1 809 Kbps
Width : 480 pixels
Height : 360 pixels
Display aspect ratio : 4:3
Frame rate : 25.000 fps
Color space : YUV
Chroma subsampling : 4:2:0
Bit depth : 8 bits
Scan type : Progressive
Compression mode : Lossy
Bits/(Pixel*Frame) : 0.185
Stream size : 483 MiB (93%)
Writing library : XviD 73
Audio
ID : 1
Format : MPEG Audio
Format version : Version 1
Format profile : Layer 3
Mode : Joint stereo
Codec ID : 55
Codec ID/Hint : MP3
Duration : 81mn 18s
Bit rate mode : Constant
Bit rate : 128 Kbps
Channel(s) : 2 channels
Sampling rate : 48.0 KHz
Compression mode : Lossy
Stream size : 45.9 MiB (7%)
Alignment : Split accross interleaves
Interleave, duration : 40 ms (1.00 video frame)
Interleave, preload duratio : 500 ms.

Скриншоты






Показать сообщения:    

Текущее время: 10-Дек 11:57

Часовой пояс: UTC + 3


Вы не можете начинать темы
Вы не можете отвечать на сообщения
Вы не можете редактировать свои сообщения
Вы не можете удалять свои сообщения
Вы не можете голосовать в опросах
Вы не можете прикреплять файлы к сообщениям
Вы не можете скачивать файлы