(Classical / Symphony / Orchestral) Hector Berlioz - Symphonie fantastique | Franz Liszt - Les Preludes (West-Eastern Divan Orchestra, Daniel Barenboim, 21.08.2009) - 2013, FLAC (tracks+.cue) lossless


 

[Цитировать]

Hector Berlioz (1803–1869)
Symphonie fantastique
Épisode de la vie d'un artiste


Franz Liszt (1811–1886)
Les Préludes
Symphonische Dichtung Nr. 3


West-Eastern Divan Orchestra
Daniel Barenboim conductor


Жанр: Classical / Symphony / Orchestral
Дата и место записи: Royal Albert Hall, London, 21 August 2009 (live)
Формат записи: DDD, Stereo
Год издания диска: 2013
Издатель (лейбл): Decca
Номер по каталогу: 478 5350
Аудиокодек: FLAC
Тип рипа: tracks+.cue
Битрейт аудио: lossless
Продолжительность: 1:07:44
Наличие сканов в содержимом раздачи: да
Источник: What.CD
Релизёр: DM_Lyrae


Tracklist / Треклист
Hector Berlioz
«Symphonie fantastique», Op. 14 - 51:39
I. Rêveries. Passions - 14:58
  • II. Un bal - 6:19
  • III. Scène aux champs - 15:31
  • IV. Marche au supplice - 4:35
  • V. Songe d'une nuit du Sabbat - 10:17
    Franz Liszt
    «Les Préludes» (Symphonische Dichtung Nr. 3), S. 97 - 16:05

    -

    EAC log / Отчёт EAC

    Exact Audio Copy V1.0 beta 3 from 29. August 2011
    EAC extraction logfile from 13. May 2015, 2:00
    Daniel Barenboim / Symphonie Fantastique
    Used drive : ASUS DRW-24B1ST i Adapter: 0 ID: 0
    Read mode : Secure
    Utilize accurate stream : Yes
    Defeat audio cache : Yes
    Make use of C2 pointers : No
    Read offset correction : 6
    Overread into Lead-In and Lead-Out : No
    Fill up missing offset samples with silence : Yes
    Delete leading and trailing silent blocks : No
    Null samples used in CRC calculations : Yes
    Used interface : Native Win32 interface for Win NT & 2000
    Gap handling : Appended to previous track
    Used output format : User Defined Encoder
    Selected bitrate : 128 kBit/s
    Quality : High
    Add ID3 tag : No
    Command line compressor : C:\Program Files (x86)\Exact Audio Copy\Flac\flac.exe
    Additional command line options : -8 -V -T "ARTIST=%artist%" -T "TITLE=%title%" -T "ALBUM=%albumtitle%" -T "DATE=%year%" -T "TRACKNUMBER=%tracknr%" -T "TOTALTRACKS=%numtracks%" -T "GENRE=%genre%" -T "ALBUMARTIST=%albumartist%" -T "ALBUM ARTIST=%albumartist%" -T "COMMENT=EAC Secure Mode, Test & Copy, AccurateRip, FLAC -8" %source%
    TOC of the extracted CD
    Track | Start | Length | Start sector | End sector
    ---------------------------------------------------------
    1 | 0:00.00 | 14:57.53 | 0 | 67327
    2 | 14:57.53 | 6:18.45 | 67328 | 95722
    3 | 21:16.23 | 15:30.63 | 95723 | 165535
    4 | 36:47.11 | 4:34.56 | 165536 | 186141
    5 | 41:21.67 | 10:17.17 | 186142 | 232433
    6 | 51:39.09 | 16:05.12 | 232434 | 304820
    Track 1
    Filename D:\_Post\Berlioz\01 - Hector Berlioz - Symphonie Fantastique - 1. Reveries - Passions.wav
    Pre-gap length 0:00:02.00
    Peak level 70.6 %
    Extraction speed 2.4 X
    Track quality 99.9 %
    Test CRC EB22CB78
    Copy CRC EB22CB78
    Track not present in AccurateRip database
    Copy OK
    Track 2
    Filename D:\_Post\Berlioz\02 - Hector Berlioz - Symphonie Fantastique - 2. Un bal.wav
    Peak level 33.2 %
    Extraction speed 3.0 X
    Track quality 100.0 %
    Test CRC A5CBA32C
    Copy CRC A5CBA32C
    Track not present in AccurateRip database
    Copy OK
    Track 3
    Filename D:\_Post\Berlioz\03 - Hector Berlioz - Symphonie Fantastique - 3. Scene aux champs.wav
    Peak level 84.5 %
    Extraction speed 3.5 X
    Track quality 100.0 %
    Test CRC 1A8ADCAB
    Copy CRC 1A8ADCAB
    Track not present in AccurateRip database
    Copy OK
    Track 4
    Filename D:\_Post\Berlioz\04 - Hector Berlioz - Symphonie Fantastique - 4. Marche au supplice.wav
    Peak level 100.0 %
    Extraction speed 3.5 X
    Track quality 100.0 %
    Test CRC 604D0215
    Copy CRC 604D0215
    Track not present in AccurateRip database
    Copy OK
    Track 5
    Filename D:\_Post\Berlioz\05 - Hector Berlioz - Symphonie Fantastique - 5. Songe d'une nuit du Sabbat.wav
    Peak level 80.2 %
    Extraction speed 4.0 X
    Track quality 100.0 %
    Test CRC 222C1FDC
    Copy CRC 222C1FDC
    Track not present in AccurateRip database
    Copy OK
    Track 6
    Filename D:\_Post\Berlioz\06 - Franz Liszt - Symphonie Poem No. 3 'Les Preludes' S97.wav
    Peak level 69.7 %
    Extraction speed 4.5 X
    Track quality 100.0 %
    Test CRC EA80B304
    Copy CRC EA80B304
    Track not present in AccurateRip database
    Copy OK
    None of the tracks are present in the AccurateRip database
    No errors occurred
    End of status report
    ==== Log checksum C819AC5E90F965D7CA94E640AE24BA9F0F7776106DD8BB2F42892586FED39E12 ====

    auCDtect Task Manager log / Отчёт auCDtect Task Manager

    -----------------------
    DON'T MODIFY THIS FILE
    -----------------------
    PERFORMER: auCDtect Task Manager, ver. 1.5.1RC3 build 1.5.1.4
    Copyright (c) 2008-2010 y-soft. All rights reserved
    ANALYZER: auCDtect: CD records authenticity detector, version 0.8.2
    Copyright (c) 2004 Oleg Berngardt. All rights reserved.
    Copyright (c) 2004 Alexander Djourik. All rights reserved.
    FILE: 03 - Symphonie fantastique, Op. 14 - III. Scene aux champs.flac
    Size: 52749649 Hash: 3C06EB4B5BB17438D901104B03FD3F59 Accuracy: -m0
    Conclusion: CDDA 99%
    Signature: 8F064929126F69AF35CB8CB56CAA794848EC606A
    FILE: 02 - Symphonie fantastique, Op. 14 - II. Un bal.flac
    Size: 25713285 Hash: 5CE41A529B5B608AA7444B8F8F6BEE3F Accuracy: -m0
    Conclusion: CDDA 100%
    Signature: 48CDF59601E89EFDF3706D07A03EE58FE828D6D8
    FILE: 01 - Symphonie fantastique, Op. 14 - I. Reveries. Passions.flac
    Size: 58650746 Hash: 9230E06C39609B949EDF70298E94956E Accuracy: -m0
    Conclusion: CDDA 100%
    Signature: FE99B0BA5FFEF028501558316511027734CF63D3
    FILE: 06 - Les Preludes (Symphonische Dichtung Nr. 3), S. 97.flac
    Size: 70913263 Hash: 6F7667B712B6FD57BC3C6D98F297CAF4 Accuracy: -m0
    Conclusion: CDDA 100%
    Signature: A607EA76C3AF50242B6406A4974E0D6C3A177287
    FILE: 05 - Symphonie fantastique, Op. 14 - V. Songe d'une nuit du Sabbat.flac
    Size: 43740837 Hash: 4AB20E049BB4B346CF2A9EEB8C0B8104 Accuracy: -m0
    Conclusion: CDDA 99%
    Signature: E8C1391231E9902CD50EEB745AD967D2E6DD2803
    FILE: 04 - Symphonie fantastique, Op. 14 - IV. Marche au supplice.flac
    Size: 20927616 Hash: DC22FACDC7CFFE9AC505BA31DFA81024 Accuracy: -m0
    Conclusion: CDDA 100%
    Signature: 4AFECF3CD34D3ED016B3862E06C8EBBBEDAA06F7

    CUETools log / Отчёт CUETools

    [CUETools log; Date: 23.05.2015 01:25:28; Version: 2.1.4]
    [AccurateRip ID: 00100d50-00549477-510fe006] disk not present in database.
    Track Peak [ CRC32 ] [W/O NULL] [ LOG ]
    -- 100,0 [41E471F2] [5AB923EB]
    01 70,6 [EB22CB78] [63D9E2AC] CRC32
    02 33,2 [A5CBA32C] [C5E432A0] CRC32
    03 84,5 [1A8ADCAB] [8D46407A] CRC32
    04 100,0 [604D0215] [22AA6D31] CRC32
    05 80,2 [222C1FDC] [628FA9F7] CRC32
    06 69,7 [EA80B304] [BC17BA02] CRC32

    CUE sheet

    TITLE "Hector Berlioz: «Symphonie fantastique» | Franz Liszt: «Les Préludes»"
    PERFORMER "Daniel Barenboim"
    REM DISCID 510FE006
    REM COMMENT "ExactAudioCopy v1.0b3"
    FILE "01 - Symphonie fantastique, Op. 14 - I. Reveries. Passions.flac" WAVE
    TRACK 01 AUDIO
    TITLE "«Symphonie fantastique», Op. 14: I. Rêveries. Passions"
    PERFORMER "West-Eastern Divan Orchestra. Daniel Barenboim, conductor"
    REM DATE 2009
    INDEX 01 00:00:00
    FILE "02 - Symphonie fantastique, Op. 14 - II. Un bal.flac" WAVE
    TRACK 02 AUDIO
    TITLE "«Symphonie fantastique», Op. 14: II. Un bal"
    PERFORMER "West-Eastern Divan Orchestra. Daniel Barenboim, conductor"
    REM DATE 2009
    INDEX 01 00:00:00
    FILE "03 - Symphonie fantastique, Op. 14 - III. Scene aux champs.flac" WAVE
    TRACK 03 AUDIO
    TITLE "«Symphonie fantastique», Op. 14: III. Scène aux champs"
    PERFORMER "West-Eastern Divan Orchestra. Daniel Barenboim, conductor"
    REM DATE 2009
    INDEX 01 00:00:00
    FILE "04 - Symphonie fantastique, Op. 14 - IV. Marche au supplice.flac" WAVE
    TRACK 04 AUDIO
    TITLE "«Symphonie fantastique», Op. 14: IV. Marche au supplice"
    PERFORMER "West-Eastern Divan Orchestra. Daniel Barenboim, conductor"
    REM DATE 2009
    INDEX 01 00:00:00
    FILE "05 - Symphonie fantastique, Op. 14 - V. Songe d'une nuit du Sabbat.flac" WAVE
    TRACK 05 AUDIO
    TITLE "«Symphonie fantastique», Op. 14: V. Songe d'une nuit du Sabbat"
    PERFORMER "West-Eastern Divan Orchestra. Daniel Barenboim, conductor"
    REM DATE 2009
    INDEX 01 00:00:00
    FILE "06 - Les Preludes (Symphonische Dichtung Nr. 3), S. 97.flac" WAVE
    TRACK 06 AUDIO
    TITLE "«Les Préludes» (Symphonische Dichtung Nr. 3), S. 97"
    PERFORMER "West-Eastern Divan Orchestra. Daniel Barenboim, conductor"
    REM DATE 2009
    INDEX 01 00:00:00
    -
    Hector Berlioz — каталог раздач на rutracker.orgFranz Liszt — каталог раздач на rutracker.orgВсе мои раздачи / All my releases



  • Показать сообщения:    

    Текущее время: 10-Дек 23:32

    Часовой пояс: UTC + 3


    Вы не можете начинать темы
    Вы не можете отвечать на сообщения
    Вы не можете редактировать свои сообщения
    Вы не можете удалять свои сообщения
    Вы не можете голосовать в опросах
    Вы не можете прикреплять файлы к сообщениям
    Вы не можете скачивать файлы