(Baroque ballet / opera) Rameau - Les Fetes de l’Hymen et de l’Amour, ou Les Dieux d'Egypte [2CD's] (Carolyn Sampson, Blandine Staskievicz / Le Concert Spirituel, Herve Niquet) - 2015, FLAC (image+.cue) lossless


 

[Цитировать]

Rameau - Les Fêtes de l’Hymen et de l’Amour, ou Les Dieux d'Egypte

Жанр: Baroque ballet / opera
Страна-производитель диска: Made in Austria
Год издания диска: 2015
Издатель (лейбл): Glossa
Номер по каталогу: GCD 921629
Дата записи: 2014
Аудиокодек: FLAC
Тип рипа: image+.cue
Битрейт аудио: lossless
Продолжительность: общая продолжительность 113'43
Источник: релизер
сайт-источник/ник/другое: d'Avignon
Наличие сканов в содержимом раздачи: да
Треклист:

скрытый текст

CD1

скрытый текст

01. Prologue – Ouverture [0:02:37.90]
02. Prologue – scène 1 - Un Plaisir 'Dieu charmant, épuisez vos pleurs' [0:01:07.88]
03. Prologue – scène 1 - 1er ballet figuré [0:01:11.42]
04. Prologue – scène 1 - L'Amour 'Mon trop juste dépit ne peut plus se calmer …' [0:00:58.00]
05. Prologue – scène 1 - Gavottes - Un Plaisir 'Dans les ennuis, dans les alarmes' [0:02:44.04]
06. Prologue – scène 1 - L'Amour 'Je perdrais toute ma puissance ?' [0:01:10.13]
07. Prologue – scène 1 - Symphonie - Chœur 'Quels sons brillants font retentir ces lieux ! …' [0:00:11.50]
08. Prologue – scène 2 - L'Hymen 'Fuyez, fuyez sombre tristesse' [0:01:16.73]
09. Prologue – scène 2 - L'Amour 'Qu'entends-je ! Ô dieux ! …' [0:02:06.96]
10. Prologue – scène 2 - L'Amour 'Volez, Plaisirs, célébrez ce beau jour' [0:02:01.10]
11. Prologue – scène 2 - 2nd ballet figuré - Air un peu vif [0:00:25.10]
12. Prologue – scène 2 - 1er et 2e passepieds [0:01:52.73]
13. Prologue – scène 2 - L'Amour 'Qu'on ne trouve dans l'univers' [0:00:33.10]
14. Prologue – scène 2 - Chœur 'Régnez, offrez-vous aux mortels' [0:01:54.36]
15. Ouverture (reprise pour l'entracte') [0:02:38.58]
16. Entrée I Osiris – Ritournelle [0:00:19.69]
17. Entrée I Osiris – scène 1 - Mirrine 'Il faut vaincre ou subir un honteux esclavage' [0:00:27.30]
18. Entrée I Osiris – scène 1 - Orthésie 'Que ces mortels sont redoutables !'' [0:00:33.29]
19. Entrée I Osiris – scène 1 - Mirrine 'Ce sexe ambitieux n'aspire qu'à nous asservir' [0:00:41.74]
20. Entrée I Osiris – scène 1 - Chœur d'Amazones sauvages 'Aux armes ! Courons aux armes !' [0:00:23.00]
21. Entrée I Osiris – scène 2 - Osiris 'N'écouterez-vous que la haine' [0:01:19.97]
22. Entrée I Osiris – scène 2 - Osiris 'Que vous connaissez mal le pouvoir de vos charmes !' [0:01:32.10]
23. Entrée I Osiris – scène 2 - Orthésie 'Aux douceurs d'un frivole hommage' [0:00:53.81]
24. Entrée I Osiris – scène 2 - Osiris 'Je guide un peuple généreux' [0:01:48.50]
25. Entrée I Osiris – scène 2 - Entrée des Saisons et des Arts [0:01:07.70]
26. Entrée I Osiris – scène 2 - Entrée de Moissonneurs et de Vendangeurs [0:00:29.18]
27. Entrée I Osiris – scène 2 - Air des Satyres [0:01:10.01]
28. Entrée I Osiris – scène 3 - Chœur d'Amazones sauvages 'Quels doux parfums' [0:01:36.28]
29. Entrée I Osiris – scène 4 - Mirrine 'Peuple léger, ton cœur cesse d'être inflexible !' [0:00:30.98]
30. Entrée I Osiris – scène 5 - Sarabande en rondeau pour les berceaux de fleurs qui s'élèvent [0:01:24.74]
31. Entrée I Osiris – scène 5 - 1er et 2e rigaudons [0:01:15.28]
32. Entrée I Osiris – scènes 5 et 6 - Chœur d'Amazones sauvages 'Quels objets enchanteurs !' [0:02:45.74]
33. Entrée I Osiris – scène 6 - Osiris 'Il règne en souverain sur toute la nature [0:01:23.37]
34. Entrée I Osiris – scène 7 - Mirrine 'Que notre serment s'accomplisse' [0:01:20.64]
35. Entrée I Osiris – scène 8 - Osiris 'Vous défendez des jours que j'offre à vos appas' [0:00:55.52]
36. Entrée I Osiris – scène 8 - Osiris 'Qu'à la voix d'Osiris ces déserts s'embellissent' [0:01:11.52]
37. Entrée I Osiris – scène 8 - Mouvements de sarabande et de loure [0:02:30.17]
38. Entrée I Osiris – scène 8 - Gigue [0:00:45.73]
39. Entrée I Osiris – scène 8 - Orthésie 'Heureux oiseaux, l'Amour embellit ces bocages' [0:03:21.53]
40. Entrée I Osiris – scène 8 - Contredanse [0:01:13.62]
CD2

скрытый текст

01. Entrée II Canope – Ritournelle et scène 1 - Agéris 'L'Égypte dans ce jour (…)' [0:02:58.40]
02. Entrée II Canope – scène 2 - Memphis 'Ah ! Nilée, est-ce vous ? Je tremble, je frémis ! …' [0:01:07.85]
03. Entrée II Canope – scène 2 - Memphis 'Tout à coup, le tonnerre éclate dans les airs' [0:00:46.37]
04. Entrée II Canope – scène 2 - Canope 'Un songe qui cause nos craintes' [0:00:36.78]
05. Entrée II Canope – scène 2 - Chœur 'Quelle victime ! Ô ciel ! … Malheureuse Memphis ! …' [0:00:51.97]
06. Entrée II Canope – scène 3 - Memphis 'Veille, Amour, veille sur les jours' [0:01:21.58]
07. Entrée II Canope – scène 4 - Le Grand-prêtre 'Je gémis des rigueurs du sort' [0:00:24.36]
08. Entrée II Canope – scène 4 - Air majestueux [0:01:57.14]
09. Entrée II Canope – scène 4 - Le Grand-prêtre 'Dieu bienfaisant, puissent tes eaux fécondes' [0:01:44.05]
10. Entrée II Canope – scène 5 - Canope 'Impétueux torrents, d'un dieu vengeur' [0:01:57.84]
11. Entrée II Canope – scène 5 - Canope 'Peuple aveugle, peux-tu m'honorer par un crime !' [0:00:30.40]
12. Entrée II Canope – scène 6 - Canope 'Quel spectacle touchant pour une âme sensible !' [0:03:07.40]
13. Entrée II Canope – scène 6 - Canope et Memphis 'Vous m'aimez, je n'en puis douter' [0:01:35.32]
14. Entrée II Canope – scène 6 - Canope 'Vous qui m'obéissez, accourez à ma voix' [0:00:54.62]
15. Entrée II Canope – scène 7 - Chaconne - Chœur 'Tendre Amour, dans tes chaînes' [0:04:55.64]
16. Entrée II Canope – scène 7 - Une Égyptienne 'Amour, lance tes traits (…)' [0:02:18.82]
17. Entrée II Canope – scène 7 - 1er et 2e rigaudons [0:02:06.65]
18. Entrée III Aruéris ou les Isies – scène 1 - Aruéris 'Le bonheur de la terre (…)' [0:01:43.93]
19. Entrée III Aruéris ou les Isies – scène 2 - Orie 'Ingrat, pour les beaux-arts (…)' [0:00:59.24]
20. Entrée III Aruéris ou les Isies – scène 2 - Aruéris 'Les dons les plus brillants (…)' [0:01:35.25]
21. Entrée III Aruéris ou les Isies – scène 2 - Aruéris 'Cette plaine vaste et féconde' [0:01:17.37]
22. Entrée III Aruéris ou les Isies – scène 2 - Aruéris 'Entrez dans la carrière (…)' [0:02:25.30]
23. Entrée III Aruéris ou les Isies – scène 3 - Air gai [0:01:26.09]
24. Entrée III Aruéris ou les Isies – scène 3 - Aruéris 'Vos plaisirs et votre allégresse' [0:01:01.89]
25. Entrée III Aruéris ou les Isies – scène 3 - Un berger égyptien (…) 'Brillez sons enchanteurs' [0:00:56.56]
26. Entrée III Aruéris ou les Isies – scène 3 - Sarabande [0:01:02.21]
27. Entrée III Aruéris ou les Isies – scène 3 - Air gai [0:02:30.01]
28. Entrée III Aruéris ou les Isies – scène 3 - Musette - Un berger égyptien 'Ma bergère (…)' [0:02:47.76]
29. Entrée III Aruéris ou les Isies – scène 3 - Air gai [0:01:41.96]
30. Entrée III Aruéris ou les Isies – scène 3 - 1er et 2e tambourins [0:01:40.18]
31. Entrée III Aruéris ou les Isies – scène 4 - Orie 'Pour entendre ma voix, peuple (…)' [0:04:16.57]
32. Entrée III Aruéris ou les Isies – scène 4 - Tous 'Ciel, quels accents ! …' [0:01:07.60]
33. Entrée III Aruéris ou les Isies – scène 4 - Aruéris 'À l'objet de vos vœux (…)' [0:00:52.65]
34. Entrée III Aruéris ou les Isies – scène 4 - Air de triomphe [0:01:00.32]
35. Entrée III Aruéris ou les Isies – scène 4 - Orie et Aruéris 'Hymen, c'est le jour de ta gloire' [0:02:48.58]
Исполнители:

скрытый текст

Jean-Philippe Rameau
Les Fêtes de l’Hymen et de l’Amour, ou Les Dieux d'Egypte
Ballet heroique, Versailles, 1747
Orthésie | Orie: Chantal Santon-Jeffrey (сопрано)
L'Amour | Memphis | Une Première Egyptienne | Une Bergère égyptienne: Carolyn Sampson (сопрано)
L'Hymen | Une Egyptienne | Une Seconde Egyptienne: Blandine Staskievicz (сопрано)
Myrrine: Jennifer Borgui (меццо-сопрано)
Un Plaisir | Agéris | Aruéris: Mathias Vidal (тенор)
Osiris | Un Berger égyptien | Un Egyptien: Reinoud van Mechelen (тенор)
Canope: Tassis Christoyannis (бас)
Le Grand-Prêtre | Un Egyptien: Alan Buet (бас)
Le Concert Spirituel
Hervé Niquet - сonductor
Записано 13 и 14 февраля 2014 года, Королевская опера, Версаль
Лог создания рипа
CD1

скрытый текст

Exact Audio Copy V1.0 beta 3 from 29. August 2011
EAC extraction logfile from 17. April 2015, 22:17
Jean-Philippe Rameau / Les Fêtes de l'Hymen et de l'Amour ou Les Dieux d'Égypte – CD1
Used drive : TSSTcorpCDDVDW SH-216AB Adapter: 1 ID: 0
Read mode : Secure
Utilize accurate stream : Yes
Defeat audio cache : Yes
Make use of C2 pointers : No
Read offset correction : 6
Overread into Lead-In and Lead-Out : No
Fill up missing offset samples with silence : Yes
Delete leading and trailing silent blocks : No
Null samples used in CRC calculations : Yes
Used interface : Installed external ASPI interface
Used output format : User Defined Encoder
Selected bitrate : 768 kBit/s
Quality : High
Add ID3 tag : No
Command line compressor : C:\Program Files (x86)\Exact Audio Copy\FLAC\FLAC.EXE
Additional command line options : -6 -V -T "ARTIST=%artist%" -T "TITLE=%title%" -T "ALBUM=%albumtitle%" -T "DATE=%year%" -T "TRACKNUMBER=%tracknr%" -T "GENRE=%genre%" -T "COMMENT=%comment%" -T "BAND=%albuminterpret%" -T "ALBUMARTIST=%albuminterpret%" -T "COMPOSER=%composer%" %haslyrics%--tag-from-file=LYRICS="%lyricsfile%"%haslyrics% -T "DISCNUMBER=%cdnumber%" -T "TOTALDISCS=%totalcds%" -T "TOTALTRACKS=%numtracks%" %hascover%--picture="%coverfile%"%hascover% %source% -o %dest%
TOC of the extracted CD
Track | Start | Length | Start sector | End sector
---------------------------------------------------------
1 | 0:00.00 | 2:37.68 | 0 | 11842
2 | 2:37.68 | 1:07.66 | 11843 | 16933
3 | 3:45.59 | 1:11.32 | 16934 | 22290
4 | 4:57.16 | 0:58.00 | 22291 | 26640
5 | 5:55.16 | 2:44.03 | 26641 | 38943
6 | 8:39.19 | 1:10.10 | 38944 | 44203
7 | 9:49.29 | 0:11.38 | 44204 | 45066
8 | 10:00.67 | 1:16.55 | 45067 | 50821
9 | 11:17.47 | 2:06.72 | 50822 | 60343
10 | 13:24.44 | 2:01.08 | 60344 | 69426
11 | 15:25.52 | 0:25.08 | 69427 | 71309
12 | 15:50.60 | 1:52.55 | 71310 | 79764
13 | 17:43.40 | 0:33.08 | 79765 | 82247
14 | 18:16.48 | 1:54.27 | 82248 | 90824
15 | 20:11.00 | 2:38.44 | 90825 | 102718
16 | 22:49.44 | 0:19.52 | 102719 | 104195
17 | 23:09.21 | 0:27.23 | 104196 | 106243
18 | 23:36.44 | 0:33.22 | 106244 | 108740
19 | 24:09.66 | 0:41.56 | 108741 | 111871
20 | 24:51.47 | 0:23.00 | 111872 | 113596
21 | 25:14.47 | 1:19.73 | 113597 | 119594
22 | 26:34.45 | 1:32.08 | 119595 | 126502
23 | 28:06.53 | 0:53.61 | 126503 | 130538
24 | 29:00.39 | 1:48.38 | 130539 | 138676
25 | 30:49.02 | 1:07.53 | 138677 | 143754
26 | 31:56.55 | 0:29.14 | 143755 | 145943
27 | 32:25.69 | 1:10.01 | 145944 | 151194
28 | 33:35.70 | 1:36.21 | 151195 | 158415
29 | 35:12.16 | 0:30.74 | 158416 | 160739
30 | 35:43.15 | 1:24.56 | 160740 | 167095
31 | 37:07.71 | 1:15.21 | 167096 | 172741
32 | 38:23.17 | 2:45.56 | 172742 | 185172
33 | 41:08.73 | 1:23.28 | 185173 | 191425
34 | 42:32.26 | 1:20.48 | 191426 | 197473
35 | 43:52.74 | 0:55.39 | 197474 | 201637
36 | 44:48.38 | 1:11.39 | 201638 | 207001
37 | 46:00.02 | 2:30.13 | 207002 | 218264
38 | 48:30.15 | 0:45.55 | 218265 | 221694
39 | 49:15.70 | 3:21.40 | 221695 | 236809
40 | 52:37.35 | 1:13.47 | 236810 | 242331
Range status and errors
Selected range
Filename C:\Users\astarte\03. POST\Rameau\1\Jean-Philippe Rameau - Les Fêtes de l'Hymen et de l'Amour ou Les Dieux d'Égypte – CD1.wav
Peak level 93.3 %
Extraction speed 7.3 X
Range quality 100.0 %
Copy CRC DC81325C
Copy OK
No errors occurred
AccurateRip summary
Track 1 accurately ripped (confidence 2) [07A18B1E] (AR v2)
Track 2 accurately ripped (confidence 2) [F583A612] (AR v2)
Track 3 accurately ripped (confidence 2) [5AF07A06] (AR v2)
Track 4 accurately ripped (confidence 2) [DBEC795B] (AR v2)
Track 5 accurately ripped (confidence 2) [4EA6C4A9] (AR v2)
Track 6 accurately ripped (confidence 2) [0FE7F75D] (AR v2)
Track 7 accurately ripped (confidence 2) [D8785246] (AR v2)
Track 8 accurately ripped (confidence 2) [E93EA841] (AR v2)
Track 9 accurately ripped (confidence 2) [A232E8A9] (AR v2)
Track 10 accurately ripped (confidence 2) [0CBA5039] (AR v2)
Track 11 accurately ripped (confidence 2) [1D176F4B] (AR v2)
Track 12 accurately ripped (confidence 2) [8CD543A1] (AR v2)
Track 13 accurately ripped (confidence 2) [9945D3FF] (AR v2)
Track 14 accurately ripped (confidence 2) [7AFE1CE8] (AR v2)
Track 15 accurately ripped (confidence 2) [D4F073A2] (AR v2)
Track 16 accurately ripped (confidence 2) [3787EA87] (AR v2)
Track 17 accurately ripped (confidence 2) [9D01D85C] (AR v2)
Track 18 accurately ripped (confidence 2) [660F9FB2] (AR v2)
Track 19 accurately ripped (confidence 2) [05551F9C] (AR v2)
Track 20 accurately ripped (confidence 2) [7CFF351A] (AR v2)
Track 21 accurately ripped (confidence 2) [B296FAC7] (AR v2)
Track 22 accurately ripped (confidence 2) [B20B6B03] (AR v2)
Track 23 accurately ripped (confidence 2) [7D58610E] (AR v2)
Track 24 accurately ripped (confidence 2) [F3C32BCD] (AR v2)
Track 25 accurately ripped (confidence 2) [1DABFFC7] (AR v2)
Track 26 accurately ripped (confidence 2) [04662C06] (AR v2)
Track 27 accurately ripped (confidence 2) [BB83227F] (AR v2)
Track 28 accurately ripped (confidence 2) [CF686A67] (AR v2)
Track 29 accurately ripped (confidence 2) [E669DF54] (AR v2)
Track 30 accurately ripped (confidence 2) [E7454594] (AR v2)
Track 31 accurately ripped (confidence 2) [58B9FC77] (AR v2)
Track 32 accurately ripped (confidence 2) [570EABE3] (AR v2)
Track 33 accurately ripped (confidence 2) [6DDBFA8D] (AR v2)
Track 34 accurately ripped (confidence 2) [1E9F5E76] (AR v2)
Track 35 accurately ripped (confidence 2) [22F1A798] (AR v2)
Track 36 accurately ripped (confidence 2) [DC8B247D] (AR v2)
Track 37 accurately ripped (confidence 2) [E9486029] (AR v2)
Track 38 accurately ripped (confidence 2) [4C479E07] (AR v2)
Track 39 accurately ripped (confidence 2) [A190B768] (AR v2)
Track 40 accurately ripped (confidence 2) [3D8466BD] (AR v2)
All tracks accurately ripped
End of status report
==== Log checksum BE1549D50E2749F469C5398D1BD51AA747C2951C13CCBB9581C756BA2B3FFB14 ====
CD2

скрытый текст

Exact Audio Copy V1.0 beta 3 from 29. August 2011
EAC extraction logfile from 17. April 2015, 22:28
Jean-Philippe Rameau / Les Fêtes de l'Hymen et de l'Amour ou Les Dieux d'Égypte – CD2
Used drive : TSSTcorpCDDVDW SH-216AB Adapter: 1 ID: 0
Read mode : Secure
Utilize accurate stream : Yes
Defeat audio cache : Yes
Make use of C2 pointers : No
Read offset correction : 6
Overread into Lead-In and Lead-Out : No
Fill up missing offset samples with silence : Yes
Delete leading and trailing silent blocks : No
Null samples used in CRC calculations : Yes
Used interface : Installed external ASPI interface
Used output format : User Defined Encoder
Selected bitrate : 768 kBit/s
Quality : High
Add ID3 tag : No
Command line compressor : C:\Program Files (x86)\Exact Audio Copy\FLAC\FLAC.EXE
Additional command line options : -6 -V -T "ARTIST=%artist%" -T "TITLE=%title%" -T "ALBUM=%albumtitle%" -T "DATE=%year%" -T "TRACKNUMBER=%tracknr%" -T "GENRE=%genre%" -T "COMMENT=%comment%" -T "BAND=%albuminterpret%" -T "ALBUMARTIST=%albuminterpret%" -T "COMPOSER=%composer%" %haslyrics%--tag-from-file=LYRICS="%lyricsfile%"%haslyrics% -T "DISCNUMBER=%cdnumber%" -T "TOTALDISCS=%totalcds%" -T "TOTALTRACKS=%numtracks%" %hascover%--picture="%coverfile%"%hascover% %source% -o %dest%
TOC of the extracted CD
Track | Start | Length | Start sector | End sector
---------------------------------------------------------
1 | 0:00.00 | 2:58.30 | 0 | 13379
2 | 2:58.30 | 1:07.64 | 13380 | 18468
3 | 4:06.19 | 0:46.28 | 18469 | 21946
4 | 4:52.47 | 0:36.59 | 21947 | 24705
5 | 5:29.31 | 0:51.73 | 24706 | 28603
6 | 6:21.29 | 1:21.44 | 28604 | 34722
7 | 7:42.73 | 0:24.27 | 34723 | 36549
8 | 8:07.25 | 1:57.11 | 36550 | 45335
9 | 10:04.36 | 1:44.04 | 45336 | 53139
10 | 11:48.40 | 1:57.63 | 53140 | 61977
11 | 13:46.28 | 0:30.30 | 61978 | 64257
12 | 14:16.58 | 3:07.30 | 64258 | 78312
13 | 17:24.13 | 1:35.24 | 78313 | 85461
14 | 18:59.37 | 0:54.47 | 85462 | 89558
15 | 19:54.09 | 4:55.48 | 89559 | 111731
16 | 24:49.57 | 2:18.62 | 111732 | 122143
17 | 27:08.44 | 2:06.49 | 122144 | 131642
18 | 29:15.18 | 1:43.70 | 131643 | 139437
19 | 30:59.13 | 0:59.18 | 139438 | 143880
20 | 31:58.31 | 1:35.19 | 143881 | 151024
21 | 33:33.50 | 1:17.28 | 151025 | 156827
22 | 34:51.03 | 2:25.23 | 156828 | 167725
23 | 37:16.26 | 1:26.07 | 167726 | 174182
24 | 38:42.33 | 1:01.67 | 174183 | 178824
25 | 39:44.25 | 0:56.42 | 178825 | 183066
26 | 40:40.67 | 1:02.16 | 183067 | 187732
27 | 41:43.08 | 2:30.01 | 187733 | 198983
28 | 44:13.09 | 2:47.57 | 198984 | 211565
29 | 47:00.66 | 1:41.72 | 211566 | 219212
30 | 48:42.63 | 1:40.14 | 219213 | 226726
31 | 50:23.02 | 4:16.43 | 226727 | 245969
32 | 54:39.45 | 1:07.45 | 245970 | 251039
33 | 55:47.15 | 0:52.49 | 251040 | 254988
34 | 56:39.64 | 1:00.24 | 254989 | 259512
35 | 57:40.13 | 2:48.44 | 259513 | 272156
Range status and errors
Selected range
Filename C:\Users\astarte\03. POST\Rameau\2\Jean-Philippe Rameau - Les Fêtes de l'Hymen et de l'Amour ou Les Dieux d'Égypte – CD2.wav
Peak level 97.3 %
Extraction speed 7.4 X
Range quality 99.9 %
Copy CRC B0EE1657
Copy OK
No errors occurred
AccurateRip summary
Track 1 accurately ripped (confidence 2) [A4A33DB2] (AR v2)
Track 2 accurately ripped (confidence 2) [89D4F821] (AR v2)
Track 3 accurately ripped (confidence 2) [E4EE918C] (AR v2)
Track 4 accurately ripped (confidence 2) [FB0B9A54] (AR v2)
Track 5 accurately ripped (confidence 2) [424ADBBD] (AR v2)
Track 6 accurately ripped (confidence 2) [733B95BE] (AR v2)
Track 7 accurately ripped (confidence 2) [B0D82DD0] (AR v2)
Track 8 accurately ripped (confidence 2) [9880198D] (AR v2)
Track 9 accurately ripped (confidence 2) [E0BB9BAB] (AR v2)
Track 10 accurately ripped (confidence 2) [FB395FA8] (AR v2)
Track 11 accurately ripped (confidence 2) [FC4EDBA2] (AR v2)
Track 12 accurately ripped (confidence 2) [BE44AFEE] (AR v2)
Track 13 accurately ripped (confidence 2) [DB77FEAE] (AR v2)
Track 14 accurately ripped (confidence 2) [75996452] (AR v2)
Track 15 accurately ripped (confidence 2) [BA00D8C3] (AR v2)
Track 16 accurately ripped (confidence 2) [3FE879D8] (AR v2)
Track 17 accurately ripped (confidence 2) [A4CDDE17] (AR v2)
Track 18 accurately ripped (confidence 2) [54A9F6FB] (AR v2)
Track 19 accurately ripped (confidence 2) [1D66332A] (AR v2)
Track 20 accurately ripped (confidence 2) [D680ED1E] (AR v2)
Track 21 accurately ripped (confidence 2) [19067F59] (AR v2)
Track 22 accurately ripped (confidence 2) [9D689550] (AR v2)
Track 23 accurately ripped (confidence 2) [FA62B5C5] (AR v2)
Track 24 accurately ripped (confidence 2) [C668F890] (AR v2)
Track 25 accurately ripped (confidence 2) [1756B489] (AR v2)
Track 26 accurately ripped (confidence 2) [1CB29D65] (AR v2)
Track 27 accurately ripped (confidence 2) [7A5D67B2] (AR v2)
Track 28 accurately ripped (confidence 2) [B538B084] (AR v2)
Track 29 accurately ripped (confidence 2) [212BB3EF] (AR v2)
Track 30 accurately ripped (confidence 2) [E60E0C68] (AR v2)
Track 31 accurately ripped (confidence 2) [CBA636AD] (AR v2)
Track 32 accurately ripped (confidence 2) [1FE43052] (AR v2)
Track 33 accurately ripped (confidence 2) [0DB88FEC] (AR v2)
Track 34 accurately ripped (confidence 2) [B88AADEE] (AR v2)
Track 35 accurately ripped (confidence 2) [6CAA19C1] (AR v2)
All tracks accurately ripped
End of status report
==== Log checksum 962AD3A7EAF64DD8C145D42D8E8D275BCB048F00F5774B1ED08CE3ADB79B0C71 ====
Содержание индексной карты (.CUE)
CD1

скрытый текст

REM GENRE Baroque
REM DATE 2014
REM DISCID 490C9F28
REM COMMENT "ExactAudioCopy v1.0b3"
CATALOG 8424562216297
PERFORMER "Jean-Philippe Rameau"
TITLE "Les Fetes de l'Hymen et de l'Amour ou Les Dieux d'Egypte – CD1"
FILE "Jean-Philippe Rameau - Les Fetes de l’Hymen et de l’Amour, ou Les Dieux d'Egypte – CD1.flac" WAVE
TRACK 01 AUDIO
TITLE "Prologue – Ouverture"
PERFORMER "Jean-Philippe Rameau"
ISRC ES7891402201
INDEX 01 00:00:00
TRACK 02 AUDIO
TITLE "Prologue – scene 1 - Un Plaisir 'Dieu charmant, epuisez vos pleurs'"
PERFORMER "Jean-Philippe Rameau"
ISRC ES7891402202
INDEX 01 02:37:68
TRACK 03 AUDIO
TITLE "Prologue – scene 1 - 1er ballet figure"
PERFORMER "Jean-Philippe Rameau"
ISRC ES7891402203
INDEX 01 03:45:59
TRACK 04 AUDIO
TITLE "Prologue – scene 1 - L'Amour 'Mon trop juste depit ne peut plus se calmer …'"
PERFORMER "Jean-Philippe Rameau"
ISRC ES7891402204
INDEX 01 04:57:16
TRACK 05 AUDIO
TITLE "Prologue – scene 1 - Gavottes - Un Plaisir 'Dans les ennuis, dans les alarmes'"
PERFORMER "Jean-Philippe Rameau"
ISRC ES7891402205
INDEX 01 05:55:16
TRACK 06 AUDIO
TITLE "Prologue – scene 1 - L'Amour 'Je perdrais toute ma puissance ?'"
PERFORMER "Jean-Philippe Rameau"
ISRC ES7891402206
INDEX 01 08:39:19
TRACK 07 AUDIO
TITLE "Prologue – scene 1 - Symphonie - Choeur 'Quels sons brillants font retentir ce..."
PERFORMER "Jean-Philippe Rameau"
ISRC ES7891402207
INDEX 01 09:49:29
TRACK 08 AUDIO
TITLE "Prologue – scene 2 - L'Hymen 'Fuyez, fuyez sombre tristesse'"
PERFORMER "Jean-Philippe Rameau"
ISRC ES7891402208
INDEX 01 10:00:67
TRACK 09 AUDIO
TITLE "Prologue – scene 2 - L'Amour 'Qu'entends-je ! O dieux ! …'"
PERFORMER "Jean-Philippe Rameau"
ISRC ES7891402209
INDEX 01 11:17:47
TRACK 10 AUDIO
TITLE "Prologue – scene 2 - L'Amour 'Volez, Plaisirs, celebrez ce beau jour'"
PERFORMER "Jean-Philippe Rameau"
ISRC ES7891402210
INDEX 01 13:24:44
TRACK 11 AUDIO
TITLE "Prologue – scene 2 - 2nd ballet figure - Air un peu vif"
PERFORMER "Jean-Philippe Rameau"
ISRC ES7891402211
INDEX 01 15:25:52
TRACK 12 AUDIO
TITLE "Prologue – scene 2 - 1er et 2e passepieds"
PERFORMER "Jean-Philippe Rameau"
ISRC ES7891402212
INDEX 01 15:50:60
TRACK 13 AUDIO
TITLE "Prologue – scene 2 - L'Amour 'Qu'on ne trouve dans l'univers'"
PERFORMER "Jean-Philippe Rameau"
ISRC ES7891402213
INDEX 01 17:43:40
TRACK 14 AUDIO
TITLE "Prologue – scene 2 - Choeur 'Regnez, offrez-vous aux mortels'"
PERFORMER "Jean-Philippe Rameau"
ISRC ES7891402214
INDEX 01 18:16:48
TRACK 15 AUDIO
TITLE "Ouverture (reprise pour l'entracte')"
PERFORMER "Jean-Philippe Rameau"
ISRC ES7891402215
INDEX 01 20:11:00
TRACK 16 AUDIO
TITLE "Entree I Osiris – Ritournelle"
PERFORMER "Jean-Philippe Rameau"
ISRC ES7891402216
INDEX 00 22:46:52
INDEX 01 22:49:44
TRACK 17 AUDIO
TITLE "Entree I Osiris – scene 1 - Mirrine 'Il faut vaincre ou subir un honteux escl..."
PERFORMER "Jean-Philippe Rameau"
ISRC ES7891402217
INDEX 01 23:09:21
TRACK 18 AUDIO
TITLE "Entree I Osiris – scene 1 - Orthesie 'Que ces mortels sont redoutables !''"
PERFORMER "Jean-Philippe Rameau"
ISRC ES7891402218
INDEX 01 23:36:44
TRACK 19 AUDIO
TITLE "Entree I Osiris – scene 1 - Mirrine 'Ce sexe ambitieux n'aspire qu'а nous ass..."
PERFORMER "Jean-Philippe Rameau"
ISRC ES7891402219
INDEX 01 24:09:66
TRACK 20 AUDIO
TITLE "Entree I Osiris – scene 1 - Chњur d'Amazones sauvages 'Aux armes ! Courons au..."
PERFORMER "Jean-Philippe Rameau"
ISRC ES7891402220
INDEX 01 24:51:47
TRACK 21 AUDIO
TITLE "Entree I Osiris – scene 2 - Osiris 'N'ecouterez-vous que la haine'"
PERFORMER "Jean-Philippe Rameau"
ISRC ES7891402221
INDEX 01 25:14:47
TRACK 22 AUDIO
TITLE "Entree I Osiris – scene 2 - Osiris 'Que vous connaissez mal le pouvoir de vos..."
PERFORMER "Jean-Philippe Rameau"
ISRC ES7891402222
INDEX 01 26:34:45
TRACK 23 AUDIO
TITLE "Entree I Osiris – scene 2 - Orthesie 'Aux douceurs d'un frivole hommage'"
PERFORMER "Jean-Philippe Rameau"
ISRC ES7891402223
INDEX 01 28:06:53
TRACK 24 AUDIO
TITLE "Entree I Osiris – scene 2 - Osiris 'Je guide un peuple genereux'"
PERFORMER "Jean-Philippe Rameau"
ISRC ES7891402224
INDEX 01 29:00:39
TRACK 25 AUDIO
TITLE "Entree I Osiris – scene 2 - Entree des Saisons et des Arts"
PERFORMER "Jean-Philippe Rameau"
ISRC ES7891402225
INDEX 01 30:49:02
TRACK 26 AUDIO
TITLE "Entree I Osiris – scene 2 - Entree de Moissonneurs et de Vendangeurs"
PERFORMER "Jean-Philippe Rameau"
ISRC ES7891402226
INDEX 01 31:56:55
TRACK 27 AUDIO
TITLE "Entree I Osiris – scene 2 - Air des Satyres"
PERFORMER "Jean-Philippe Rameau"
ISRC ES7891402227
INDEX 01 32:25:69
TRACK 28 AUDIO
TITLE "Entree I Osiris – scene 3 - Chњur d'Amazones sauvages 'Quels doux parfums'"
PERFORMER "Jean-Philippe Rameau"
ISRC ES7891402228
INDEX 01 33:35:70
TRACK 29 AUDIO
TITLE "Entree I Osiris – scene 4 - Mirrine 'Peuple leger, ton coeur cesse d'etre infl..."
PERFORMER "Jean-Philippe Rameau"
ISRC ES7891402229
INDEX 01 35:12:16
TRACK 30 AUDIO
TITLE "Entree I Osiris – scene 5 - Sarabande en rondeau pour les berceaux de fleurs ..."
PERFORMER "Jean-Philippe Rameau"
ISRC ES7891402230
INDEX 01 35:43:15
TRACK 31 AUDIO
TITLE "Entree I Osiris – scene 5 - 1er et 2e rigaudons"
PERFORMER "Jean-Philippe Rameau"
ISRC ES7891402231
INDEX 01 37:07:71
TRACK 32 AUDIO
TITLE "Entree I Osiris – scenes 5 et 6 - Choeur d'Amazones sauvages 'Quels objets enc..."
PERFORMER "Jean-Philippe Rameau"
ISRC ES7891402232
INDEX 01 38:23:17
TRACK 33 AUDIO
TITLE "Entree I Osiris – scene 6 - Osiris 'Il regne en souverain sur toute la nature"
PERFORMER "Jean-Philippe Rameau"
ISRC ES7891402233
INDEX 01 41:08:73
TRACK 34 AUDIO
TITLE "Entree I Osiris – scene 7 - Mirrine 'Que notre serment s'accomplisse'"
PERFORMER "Jean-Philippe Rameau"
ISRC ES7891402234
INDEX 01 42:32:26
TRACK 35 AUDIO
TITLE "Entree I Osiris – scene 8 - Osiris 'Vous defendez des jours que j'offre а vos..."
PERFORMER "Jean-Philippe Rameau"
ISRC ES7891402235
INDEX 01 43:52:74
TRACK 36 AUDIO
TITLE "Entree I Osiris – scene 8 - Osiris 'Qu'а la voix d'Osiris ces deserts s'embel..."
PERFORMER "Jean-Philippe Rameau"
ISRC ES7891402236
INDEX 01 44:48:38
TRACK 37 AUDIO
TITLE "Entree I Osiris – scene 8 - Mouvements de sarabande et de loure"
PERFORMER "Jean-Philippe Rameau"
ISRC ES7891402237
INDEX 01 46:00:02
TRACK 38 AUDIO
TITLE "Entree I Osiris – scene 8 - Gigue"
PERFORMER "Jean-Philippe Rameau"
ISRC ES7891402238
INDEX 01 48:30:15
TRACK 39 AUDIO
TITLE "Entree I Osiris – scene 8 - Orthesie 'Heureux oiseaux, l'Amour embellit ces b..."
PERFORMER "Jean-Philippe Rameau"
ISRC ES7891402239
INDEX 01 49:15:70
TRACK 40 AUDIO
TITLE "Entree I Osiris – scene 8 - Contredanse"
PERFORMER "Jean-Philippe Rameau"
ISRC ES7891402240
INDEX 01 52:37:35
CD2

скрытый текст

REM GENRE Baroque
REM DATE 2014
REM DISCID D60E2C23
REM COMMENT "ExactAudioCopy v1.0b3"
CATALOG 8424562216297
PERFORMER "Jean-Philippe Rameau"
TITLE "Les Fetes de l'Hymen et de l'Amour ou Les Dieux d'egypte – CD2"
FILE "Jean-Philippe Rameau - Les Fetes de l'Hymen et de l'Amour ou Les Dieux d'egypte – CD2.flac" WAVE
TRACK 01 AUDIO
TITLE "Entree II Canope – Ritournelle et scene 1 - Ageris 'L'egypte dans ce jour (…)'"
PERFORMER "Jean-Philippe Rameau"
ISRC ES7891402241
INDEX 01 00:00:00
TRACK 02 AUDIO
TITLE "Entree II Canope – scene 2 - Memphis 'Ah ! Nilee, est-ce vous ? Je tremble, j..."
PERFORMER "Jean-Philippe Rameau"
ISRC ES7891402242
INDEX 01 02:58:30
TRACK 03 AUDIO
TITLE "Entree II Canope – scene 2 - Memphis 'Tout а coup, le tonnerre eclate dans le..."
PERFORMER "Jean-Philippe Rameau"
ISRC ES7891402243
INDEX 01 04:06:19
TRACK 04 AUDIO
TITLE "Entree II Canope – scene 2 - Canope 'Un songe qui cause nos craintes'"
PERFORMER "Jean-Philippe Rameau"
ISRC ES7891402244
INDEX 01 04:52:47
TRACK 05 AUDIO
TITLE "Entree II Canope – scene 2 - Choeur 'Quelle victime ! O ciel ! … Malheureuse M..."
PERFORMER "Jean-Philippe Rameau"
ISRC ES7891402245
INDEX 01 05:29:31
TRACK 06 AUDIO
TITLE "Entree II Canope – scene 3 - Memphis 'Veille, Amour, veille sur les jours'"
PERFORMER "Jean-Philippe Rameau"
ISRC ES7891402246
INDEX 01 06:21:29
TRACK 07 AUDIO
TITLE "Entree II Canope – scene 4 - Le Grand-pretre 'Je gemis des rigueurs du sort'"
PERFORMER "Jean-Philippe Rameau"
ISRC ES7891402247
INDEX 01 07:42:73
TRACK 08 AUDIO
TITLE "Entree II Canope – scene 4 - Air majestueux"
PERFORMER "Jean-Philippe Rameau"
ISRC ES7891402248
INDEX 01 08:07:25
TRACK 09 AUDIO
TITLE "Entree II Canope – scene 4 - Le Grand-prкtre 'Dieu bienfaisant, puissent tes ..."
PERFORMER "Jean-Philippe Rameau"
ISRC ES7891402249
INDEX 01 10:04:36
TRACK 10 AUDIO
TITLE "Entree II Canope – scene 5 - Canope 'Impetueux torrents, d'un dieu vengeur'"
PERFORMER "Jean-Philippe Rameau"
ISRC ES7891402249
INDEX 01 11:48:40
TRACK 11 AUDIO
TITLE "Entree II Canope – scene 5 - Canope 'Peuple aveugle, peux-tu m'honorer par un..."
PERFORMER "Jean-Philippe Rameau"
ISRC ES7891402251
INDEX 01 13:46:28
TRACK 12 AUDIO
TITLE "Entree II Canope – scene 6 - Canope 'Quel spectacle touchant pour une вme sen..."
PERFORMER "Jean-Philippe Rameau"
ISRC ES7891402252
INDEX 01 14:16:58
TRACK 13 AUDIO
TITLE "Entree II Canope – scene 6 - Canope et Memphis 'Vous m'aimez, je n'en puis do..."
PERFORMER "Jean-Philippe Rameau"
ISRC ES7891402253
INDEX 01 17:24:13
TRACK 14 AUDIO
TITLE "Entree II Canope – scene 6 - Canope 'Vous qui m'obeissez, accourez а ma voix'"
PERFORMER "Jean-Philippe Rameau"
ISRC ES7891402254
INDEX 01 18:59:37
TRACK 15 AUDIO
TITLE "Entree II Canope – scene 7 - Chaconne - Choeur 'Tendre Amour, dans tes chaоnes'"
PERFORMER "Jean-Philippe Rameau"
ISRC ES7891402255
INDEX 01 19:54:09
TRACK 16 AUDIO
TITLE "Entree II Canope – scene 7 - Une egyptienne 'Amour, lance tes traits (…)'"
PERFORMER "Jean-Philippe Rameau"
ISRC ES7891402256
INDEX 01 24:49:57
TRACK 17 AUDIO
TITLE "Entree II Canope – scene 7 - 1er et 2e rigaudons"
PERFORMER "Jean-Philippe Rameau"
ISRC ES7891402257
INDEX 01 27:08:44
TRACK 18 AUDIO
TITLE "Entree III Arueris ou les Isies – scene 1 - Arueris 'Le bonheur de la terre (…)'"
PERFORMER "Jean-Philippe Rameau"
ISRC ES7891402258
INDEX 00 29:10:71
INDEX 01 29:15:18
TRACK 19 AUDIO
TITLE "Entree III Arueris ou les Isies – scene 2 - Orie 'Ingrat, pour les beaux-arts..."
PERFORMER "Jean-Philippe Rameau"
ISRC ES7891402259
INDEX 01 30:59:13
TRACK 20 AUDIO
TITLE "Entree III Arueris ou les Isies – scene 2 - Arueris 'Les dons les plus brilla..."
PERFORMER "Jean-Philippe Rameau"
ISRC ES7891402260
INDEX 01 31:58:31
TRACK 21 AUDIO
TITLE "Entree III Arueris ou les Isies – scene 2 - Arueris 'Cette plaine vaste et fe..."
PERFORMER "Jean-Philippe Rameau"
ISRC ES7891402261
INDEX 01 33:33:50
TRACK 22 AUDIO
TITLE "Entree III Arueris ou les Isies – scene 2 - Arueris 'Entrez dans la carriere ..."
PERFORMER "Jean-Philippe Rameau"
ISRC ES7891402262
INDEX 01 34:51:03
TRACK 23 AUDIO
TITLE "Entree III Arueris ou les Isies – scene 3 - Air gai"
PERFORMER "Jean-Philippe Rameau"
ISRC ES7891402262
INDEX 01 37:16:26
TRACK 24 AUDIO
TITLE "Entree III Arueris ou les Isies – scene 3 - Arueris 'Vos plaisirs et votre al..."
PERFORMER "Jean-Philippe Rameau"
ISRC ES7891402264
INDEX 01 38:42:33
TRACK 25 AUDIO
TITLE "Entree III Arueris ou les Isies – scene 3 - Un berger egyptien (…) 'Brillez s..."
PERFORMER "Jean-Philippe Rameau"
ISRC ES7891402264
INDEX 01 39:44:25
TRACK 26 AUDIO
TITLE "Entree III Arueris ou les Isies – scene 3 - Sarabande"
PERFORMER "Jean-Philippe Rameau"
ISRC ES7891402266
INDEX 01 40:40:67
TRACK 27 AUDIO
TITLE "Entree III Arueris ou les Isies – scene 3 - Air gai"
PERFORMER "Jean-Philippe Rameau"
ISRC ES7891402266
INDEX 01 41:43:08
TRACK 28 AUDIO
TITLE "Entree III Arueris ou les Isies – scene 3 - Musette - Un berger egyptien 'Ma ..."
PERFORMER "Jean-Philippe Rameau"
ISRC ES7891402268
INDEX 01 44:13:09
TRACK 29 AUDIO
TITLE "Entree III Arueris ou les Isies – scene 3 - Air gai"
PERFORMER "Jean-Philippe Rameau"
ISRC ES7891402269
INDEX 01 47:00:66
TRACK 30 AUDIO
TITLE "Entree III Arueris ou les Isies – scene 3 - 1er et 2e tambourins"
PERFORMER "Jean-Philippe Rameau"
ISRC ES7891402269
INDEX 01 48:42:63
TRACK 31 AUDIO
TITLE "Entree III Arueris ou les Isies – scene 4 - Orie 'Pour entendre ma voix, peup..."
PERFORMER "Jean-Philippe Rameau"
ISRC ES7891402271
INDEX 01 50:23:02
TRACK 32 AUDIO
TITLE "Entree III Arueris ou les Isies – scene 4 - Tous 'Ciel, quels accents ! …'"
PERFORMER "Jean-Philippe Rameau"
ISRC ES7891402272
INDEX 01 54:39:45
TRACK 33 AUDIO
TITLE "Entree III Arueris ou les Isies – scene 4 - Arueris 'А l'objet de vos vњux (…)'"
PERFORMER "Jean-Philippe Rameau"
ISRC ES7891402273
INDEX 01 55:47:15
TRACK 34 AUDIO
TITLE "Entree III Arueris ou les Isies – scene 4 - Air de triomphe"
PERFORMER "Jean-Philippe Rameau"
ISRC ES7891402274
INDEX 01 56:39:64
TRACK 35 AUDIO
TITLE "Entree III Arueris ou les Isies – scene 4 - Orie et Arueris 'Hymen, c'est le ..."
PERFORMER "Jean-Philippe Rameau"
ISRC ES7891402275
INDEX 01 57:40:13



Показать сообщения:    

Текущее время: 11-Дек 05:19

Часовой пояс: UTC + 3


Вы не можете начинать темы
Вы не можете отвечать на сообщения
Вы не можете редактировать свои сообщения
Вы не можете удалять свои сообщения
Вы не можете голосовать в опросах
Вы не можете прикреплять файлы к сообщениям
Вы не можете скачивать файлы