Марчелло Мастроянни: идеальный итальянец / Marcello Mastroianni: The ideal italian (Эммануэль Нобекур / Emmanuelle Nobécourt) [2015, Документальный, биография, TVRip]Rus Sub


Статистика раздачи [Обновить пиров]
Размер:  732 MB   |    Зарегистрирован:  8 месяцев 22 дня   |    Скачан:  0 раз

Полного источника не было: Никогда

 
   
 
 
 

[Цитировать]

Марчелло Мастроянни: идеальный итальянец
/
Marcello Mastroianni: The ideal italian

Год выпуска: 2015
Страна: Франция
Жанр: Документальный, биография
Продолжительность: 00:52:58
Перевод: Субтитры
Русские субтитры: есть
Формат субтитров: hardsub (неотключаемые)
Оригинальная аудиодорожка: английский
Режиссер: Эммануэль Нобекур / Emmanuelle Nobécourt
Телеканал: Аруц 8 (Израиль)
Описание: Марчелло Мастроянни был золотым мальчиком итальянского кино и актером с длинной плодотворной карьерой, охватившей 50 лет и 160 фильмов, среди которых были прекрасные фильмы, украшавшие серебряный экран. В 1960 году начинается новый этап в творческой карьере Марчелло Мастроянни – его приглашает сам Федерико Феллини в свой фильм «Сладкая жизнь» («La Dolce Vita») на роль светского журналиста-интеллектуала Гвидо Ансельми. Этот фильм сделал Мастроянни известным и востребованным по всей Европе, а его немного отрешенная игра, тонко передающая психологические противоречия и душевные терзания, завоевала массу восторженных отзывов критиков. Стиль Мастроянни был чист. Спокойный, тихий и сдержанный, черно-белый, всегда модный. В нем было естественное очарование, но не лишенное иронии. Он был воплощением итальянского шика и изысканности. Этот актер все еще занимает особое место среди звезд мирового уровня. Он был легендой, но и удивительно человечным. Вот почему его так ценят и любят, даже сегодня.
Релиз группы:
Доп. информация: Запись с канала "Аруц 8". Фильм на английском языке с двойными субтитрами (вшитыми) на русском языке и иврите. Перевод: Оксана Зацепина. Субтитры: Дори Медиа от ЛТД.
Сэмпл: https://yadi.sk/i/0KD2Y6degpMkA
качество: TVRip
формат: AVI
Видео: 1795 Кbps, 704х432 (1.630), 25.000 fps, MPEG-4 Visual (XviD)(Advanced Simple@L5)(BVOP1)
Аудио: 128 Kbps,48.0 KHz, 2 сhannels, MPEG Audio (MP3) (Version 1)(Layer 3)(Joint stereo/MS Stereо)

MediaInfo

General
Complete name : D:\Marcello Mastroianni The ideal italian.avi
Format : AVI
Format/Info : Audio Video Interleave
File size : 732 MiB
Duration : 52mn 58s
Overall bit rate : 1 933 Kbps
Writing library : VirtualDub-MPEG2 build 24600/release
Video
ID : 0
Format : MPEG-4 Visual
Format profile : Advanced Simple@L5
Format settings, BVOP : 1
Format settings, QPel : No
Format settings, GMC : No warppoints
Format settings, Matrix : Default (MPEG)
Codec ID : XVID
Codec ID/Hint : XviD
Duration : 52mn 58s
Bit rate : 1 795 Kbps
Width : 704 pixels
Height : 432 pixels
Display aspect ratio : 1.630
Frame rate : 25.000 fps
Color space : YUV
Chroma subsampling : 4:2:0
Bit depth : 8 bits
Scan type : Progressive
Compression mode : Lossy
Bits/(Pixel*Frame) : 0.236
Stream size : 680 MiB (93%)
Writing library : XviD 58
Audio
ID : 1
Format : MPEG Audio
Format version : Version 1
Format profile : Layer 3
Mode : Joint stereo
Mode extension : MS Stereo
Codec ID : 55
Codec ID/Hint : MP3
Duration : 52mn 58s
Bit rate mode : Constant
Bit rate : 128 Kbps
Channel(s) : 2 channels
Sampling rate : 48.0 KHz
Compression mode : Lossy
Stream size : 48.5 MiB (7%)
Alignment : Split accross interleaves
Interleave, duration : 40 ms (1.00 video frame)
Interleave, preload duration : 500 ms

Скриншоты

[teatrix.ru].t21238.torrent 
Торрент: Зарегистрирован [ 2016-03-20 00:49 ] · A45376F9EAC5DD8798B706FDDBC817406A6348A0

Скачать .torrent

Скачать

1 KB

Статус: проверено
Скачан: 0 раз
Размер: 732 MB
terms.php



Быстрый ответ

Имя:

      
Для отправки сообщений необходимо включить JavaScript
Показать сообщения:    

Текущее время: 11-Дек 07:07

Часовой пояс: UTC + 3


Вы можете начинать темы
Вы можете отвечать на сообщения
Вы не можете редактировать свои сообщения
Вы не можете удалять свои сообщения
Вы не можете голосовать в опросах
Вы не можете прикреплять файлы к сообщениям
Вы можете скачивать файлы