(Baroque oratorio) Stradella - La Susanna [2CD's] (Judith Nelson, Rene Jacobs / Alan Curtis) - 1991, FLAC (tracks+.cue) lossless


Статистика раздачи [Обновить пиров]
Размер:  456 MB   |    Зарегистрирован:  9 месяцев 28 дней   |    Скачан:  0 раз

Полного источника не было: Никогда

 
   
 
 
 

[Цитировать]

Stradella - La Susanna

Жанр: Baroque oratorio
Страна-производитель диска: Made in Holland
Год издания диска: 1991
Издатель (лейбл): EMI Electrola GmbH
Номер по каталогу: CMS 7 62438 2
Дата записи: 1979
Аудиокодек: FLAC
Тип рипа: tracks+.cue
Битрейт аудио: lossless
Продолжительность: 51'52 + 44'39
Источник: релизер
сайт-источник/ник/другое: Thomas Cadfael and Meeting in Music blogspot
Треклист:

скрытый текст

CD1

скрытый текст

101 Sinfonia avanti l'oratorio
102 Recitativo (Testo)
103 [No. 1] Choro а 3
104 Recitativo (Testo)
105 [No. 2] Aria (Testo)
106 Recitativo (Testo)
107 {No. 3] Aria (Giudice I)
108 Recitativo (Giudici I & II)
109 [No. 4] Aria (Giudice II)
110 Recitativo (Giudice I)
111 [No. 5] Duetto (Giudici I & II)
112 Recitativo (Giudice I)
113 [No. 6] Aria (Giudice I)
114 Recitativo (Giudici I & II)
115 Recitativo (Testo)
116 [No. 7] Choro а 3
117 Recitativo (Testo)
118 [No. 8] Aria (Susanna)
119 [No. 9] Aria (Susanna)
120 Recitativo (Susanna)
121 [No. 10] Aria (Susanna)
122 Recitativo (Testo)
123 [No. 11] Aria (Testo)
124 Recitativo (Testo)
125 [No. 12] Duetto (Giudici I & II)
126 Recitativo (Susanna)
127 [No. 13] Duetto (Giudici I & II)
128 Recitativo (Susanna, Giudici I & II)
129 Recitativo (Testo)
130 [No. 14] Choro а 5
CD2

скрытый текст

201 [No. 15] Aria (Testo)
202 Recitativo (Testo)
203 [No. 16] Aria (Susanna)
204 Recitativo (Susanna)
205 [No. 17] Aria (Susanna)
206 Recitativo (Testo)
207 Recitativo (Giudice I)
208 [No. 18] Duetto (Giudici I & II)
209 Recitativo (Testo)
210 [No. 19] Aria (Susanna)
211 Recitativo (Susanna)
212 Recitativo (Testo)
213 Recitativo (Daniele)
214 [No. 20] Aria (Daniele)
215 Recitativo (Daniele)
216 Recitativo (Testo)
217 [No. 21] Aria (Daniele) - Recitativo (Daniele & Giudice I)
218 [No. 22] Aria (Daniele)
219 Recitativo (Daniele & Giudice II)
220 Recitativo (Testo)
221 [No. 23] A 3 (Susanna & due Giudici)
222 Recitativo Giudice I)
223 Recitativo (Testo)
224 [No. 24] Choro а 3
225 [No. 25] Choro а 5
Исполнители:

скрытый текст

Alessandro STRADELLA (1644-1682)
La Susanna, oratorio in 2 parts
Marjanne Kweksilber - Susanna (soprano)
Judith Nelson - Daniele (soprano)
René Jacobs - Testo (alto)
Martyn Hill - Giudice II (tenor)
Ulrik Cold - Giudice I (bass)
Instrumental ensemble
Alan Curtis - conductor
Лог создания рипа
CD1

скрытый текст

Exact Audio Copy V1.0 beta 3 from 29. August 2011
EAC extraction logfile from 17. May 2015, 23:16
Kweksilber, Nelson, Jacobs, Hill, Cold, Curtis / La Susanna
Used drive : hp CDDVDW TS-L633N Adapter: 1 ID: 0
Read mode : Secure
Utilize accurate stream : Yes
Defeat audio cache : Yes
Make use of C2 pointers : No
Read offset correction : 6
Overread into Lead-In and Lead-Out : No
Fill up missing offset samples with silence : Yes
Delete leading and trailing silent blocks : No
Null samples used in CRC calculations : Yes
Used interface : Native Win32 interface for Win NT & 2000
Gap handling : Appended to previous track
Used output format : User Defined Encoder
Selected bitrate : 1024 kBit/s
Quality : High
Add ID3 tag : No
Command line compressor : C:\Program Files (x86)\Exact Audio Copy\Flac\flac.exe
Additional command line options : -8 -V -T "ARTIST=%artist%" -T "TITLE=%title%" -T "ALBUM=%albumtitle%" -T "DATE=%year%" -T "TRACKNUMBER=%tracknr%" -T "GENRE=%genre%" -T "PERFORMER=%albuminterpret%" -T "COMPOSER=%composer%" %haslyrics%--tag-from-file=LYRICS="%lyricsfile%"%haslyrics% -T "ALBUMARTIST=%albumartist%" -T "DISCNUMBER=%cdnumber%" -T "TOTALDISCS=%totalcds%" -T "TOTALTRACKS=%numtracks%" -T "COMMENT=%comment%" %source% -o %dest%
TOC of the extracted CD
Track | Start | Length | Start sector | End sector
---------------------------------------------------------
1 | 0:00.00 | 6:03.05 | 0 | 27229
2 | 6:03.05 | 1:25.73 | 27230 | 33677
3 | 7:29.03 | 1:54.62 | 33678 | 42289
4 | 9:23.65 | 0:40.10 | 42290 | 45299
5 | 10:04.00 | 2:00.23 | 45300 | 54322
6 | 12:04.23 | 0:58.57 | 54323 | 58729
7 | 13:03.05 | 2:35.43 | 58730 | 70397
8 | 15:38.48 | 1:49.30 | 70398 | 78602
9 | 17:28.03 | 2:32.17 | 78603 | 90019
10 | 20:00.20 | 0:30.68 | 90020 | 92337
11 | 20:31.13 | 1:55.52 | 92338 | 101014
12 | 22:26.65 | 0:27.03 | 101015 | 103042
13 | 22:53.68 | 1:33.65 | 103043 | 110082
14 | 24:27.58 | 0:17.60 | 110083 | 111417
15 | 24:45.43 | 1:49.05 | 111418 | 119597
16 | 26:34.48 | 1:41.50 | 119598 | 127222
17 | 28:16.23 | 1:34.15 | 127223 | 134287
18 | 29:50.38 | 2:16.02 | 134288 | 144489
19 | 32:06.40 | 3:29.20 | 144490 | 160184
20 | 35:35.60 | 1:06.63 | 160185 | 165197
21 | 36:42.48 | 2:44.42 | 165198 | 177539
22 | 39:27.15 | 1:57.08 | 177540 | 186322
23 | 41:24.23 | 1:53.67 | 186323 | 194864
24 | 43:18.15 | 0:44.18 | 194865 | 198182
25 | 44:02.33 | 0:59.10 | 198183 | 202617
26 | 45:01.43 | 0:38.22 | 202618 | 205489
27 | 45:39.65 | 0:58.15 | 205490 | 209854
28 | 46:38.05 | 1:26.70 | 209855 | 216374
29 | 48:05.00 | 1:11.40 | 216375 | 221739
30 | 49:16.40 | 2:35.68 | 221740 | 233432
Track 1
Filename F:\MIMIC\STRADELLA - LA SUSANNA (Curtis)\CD 1\101 Sinfonia avanti l'oratorio.wav
Pre-gap length 0:00:02.00
Peak level 66.2 %
Extraction speed 2.4 X
Track quality 100.0 %
Test CRC 59F8DDE6
Copy CRC 59F8DDE6
Accurately ripped (confidence 1) [B4005AA6] (AR v1)
Copy OK
Track 2
Filename F:\MIMIC\STRADELLA - LA SUSANNA (Curtis)\CD 1\102 Recitativo (Testo).wav
Pre-gap length 0:00:00.02
Peak level 84.0 %
Extraction speed 1.3 X
Track quality 99.8 %
Test CRC 192633CD
Copy CRC 192633CD
Accurately ripped (confidence 1) [A2D4F9A6] (AR v1)
Copy OK
Track 3
Filename F:\MIMIC\STRADELLA - LA SUSANNA (Curtis)\CD 1\103 [No. 1] Choro à 3.wav
Pre-gap length 0:00:00.03
Peak level 80.8 %
Extraction speed 1.5 X
Track quality 99.9 %
Test CRC 2C5D0C86
Copy CRC 2C5D0C86
Accurately ripped (confidence 1) [BD83D661] (AR v1)
Copy OK
Track 4
Filename F:\MIMIC\STRADELLA - LA SUSANNA (Curtis)\CD 1\104 Recitativo (Testo).wav
Pre-gap length 0:00:00.02
Peak level 50.6 %
Extraction speed 1.5 X
Track quality 100.0 %
Test CRC FAAE9B8F
Copy CRC FAAE9B8F
Accurately ripped (confidence 1) [A3D695C2] (AR v1)
Copy OK
Track 5
Filename F:\MIMIC\STRADELLA - LA SUSANNA (Curtis)\CD 1\105 [No. 2] Aria (Testo).wav
Pre-gap length 0:00:00.02
Peak level 96.9 %
Extraction speed 2.3 X
Track quality 100.0 %
Test CRC 611CEC8E
Copy CRC 611CEC8E
Accurately ripped (confidence 1) [B8202432] (AR v1)
Copy OK
Track 6
Filename F:\MIMIC\STRADELLA - LA SUSANNA (Curtis)\CD 1\106 Recitativo (Testo).wav
Pre-gap length 0:00:00.03
Peak level 84.6 %
Extraction speed 1.1 X
Track quality 99.8 %
Test CRC D424706A
Copy CRC D424706A
Accurately ripped (confidence 1) [C040DDC6] (AR v1)
Copy OK
Track 7
Filename F:\MIMIC\STRADELLA - LA SUSANNA (Curtis)\CD 1\107 {No. 3] Aria (Giudice I).wav
Pre-gap length 0:00:00.02
Peak level 55.6 %
Extraction speed 2.6 X
Track quality 100.0 %
Test CRC 244D3EB5
Copy CRC 244D3EB5
Accurately ripped (confidence 1) [618F7621] (AR v1)
Copy OK
Track 8
Filename F:\MIMIC\STRADELLA - LA SUSANNA (Curtis)\CD 1\108 Recitativo (Giudici I & II).wav
Pre-gap length 0:00:00.03
Peak level 57.1 %
Extraction speed 2.5 X
Track quality 100.0 %
Test CRC F9BDE420
Copy CRC F9BDE420
Accurately ripped (confidence 1) [E0D8B5FF] (AR v1)
Copy OK
Track 9
Filename F:\MIMIC\STRADELLA - LA SUSANNA (Curtis)\CD 1\109 [No. 4] Aria (Giudice II).wav
Pre-gap length 0:00:00.03
Peak level 75.2 %
Extraction speed 2.8 X
Track quality 100.0 %
Test CRC 5E60BA12
Copy CRC 5E60BA12
Accurately ripped (confidence 1) [9C8BCD9B] (AR v1)
Copy OK
Track 10
Filename F:\MIMIC\STRADELLA - LA SUSANNA (Curtis)\CD 1\110 Recitativo (Giudice I).wav
Pre-gap length 0:00:00.02
Peak level 56.5 %
Extraction speed 1.5 X
Track quality 100.0 %
Test CRC 09FC6ADF
Copy CRC 09FC6ADF
Accurately ripped (confidence 1) [3F0D02BA] (AR v1)
Copy OK
Track 11
Filename F:\MIMIC\STRADELLA - LA SUSANNA (Curtis)\CD 1\111 [No. 5] Duetto (Giudici I & II).wav
Pre-gap length 0:00:00.03
Peak level 89.3 %
Extraction speed 2.7 X
Track quality 100.0 %
Test CRC E6AABCCF
Copy CRC E6AABCCF
Accurately ripped (confidence 1) [EFC7E3CA] (AR v1)
Copy OK
Track 12
Filename F:\MIMIC\STRADELLA - LA SUSANNA (Curtis)\CD 1\112 Recitativo (Giudice I).wav
Pre-gap length 0:00:00.02
Peak level 80.8 %
Extraction speed 1.4 X
Track quality 100.0 %
Test CRC 0167FE9A
Copy CRC 0167FE9A
Accurately ripped (confidence 1) [C7E8668F] (AR v1)
Copy OK
Track 13
Filename F:\MIMIC\STRADELLA - LA SUSANNA (Curtis)\CD 1\113 [No. 6] Aria (Giudice I).wav
Pre-gap length 0:00:00.03
Peak level 77.1 %
Extraction speed 2.6 X
Track quality 100.0 %
Test CRC C28B9E13
Copy CRC C28B9E13
Accurately ripped (confidence 1) [84FB9BE6] (AR v1)
Copy OK
Track 14
Filename F:\MIMIC\STRADELLA - LA SUSANNA (Curtis)\CD 1\114 Recitativo (Giudici I & II).wav
Pre-gap length 0:00:00.03
Peak level 70.0 %
Extraction speed 1.1 X
Track quality 100.0 %
Test CRC A3595017
Copy CRC A3595017
Accurately ripped (confidence 1) [6572E2DF] (AR v1)
Copy OK
Track 15
Filename F:\MIMIC\STRADELLA - LA SUSANNA (Curtis)\CD 1\115 Recitativo (Testo).wav
Pre-gap length 0:00:00.03
Peak level 61.9 %
Extraction speed 2.8 X
Track quality 100.0 %
Test CRC 8AFF5C8A
Copy CRC 8AFF5C8A
Accurately ripped (confidence 1) [4ACA98FC] (AR v1)
Copy OK
Track 16
Filename F:\MIMIC\STRADELLA - LA SUSANNA (Curtis)\CD 1\116 [No. 7] Choro à 3.wav
Pre-gap length 0:00:00.03
Peak level 76.5 %
Extraction speed 2.8 X
Track quality 100.0 %
Test CRC 87B7421F
Copy CRC 87B7421F
Accurately ripped (confidence 1) [122EA18A] (AR v1)
Copy OK
Track 17
Filename F:\MIMIC\STRADELLA - LA SUSANNA (Curtis)\CD 1\117 Recitativo (Testo).wav
Pre-gap length 0:00:00.03
Peak level 80.4 %
Extraction speed 2.8 X
Track quality 100.0 %
Test CRC 432F4330
Copy CRC 432F4330
Accurately ripped (confidence 1) [1BB247FA] (AR v1)
Copy OK
Track 18
Filename F:\MIMIC\STRADELLA - LA SUSANNA (Curtis)\CD 1\118 [No. 8] Aria (Susanna).wav
Pre-gap length 0:00:00.03
Peak level 72.1 %
Extraction speed 3.2 X
Track quality 100.0 %
Test CRC 605F564D
Copy CRC 605F564D
Accurately ripped (confidence 1) [7967B652] (AR v1)
Copy OK
Track 19
Filename F:\MIMIC\STRADELLA - LA SUSANNA (Curtis)\CD 1\119 [No. 9] Aria (Susanna).wav
Pre-gap length 0:00:00.02
Peak level 78.4 %
Extraction speed 3.5 X
Track quality 100.0 %
Test CRC F3F5CF7B
Copy CRC F3F5CF7B
Accurately ripped (confidence 1) [5083D921] (AR v1)
Copy OK
Track 20
Filename F:\MIMIC\STRADELLA - LA SUSANNA (Curtis)\CD 1\120 Recitativo (Susanna).wav
Pre-gap length 0:00:00.02
Peak level 94.0 %
Extraction speed 2.6 X
Track quality 100.0 %
Test CRC 85D97B41
Copy CRC 85D97B41
Accurately ripped (confidence 1) [3533E656] (AR v1)
Copy OK
Track 21
Filename F:\MIMIC\STRADELLA - LA SUSANNA (Curtis)\CD 1\121 [No. 10] Aria (Susanna).wav
Pre-gap length 0:00:00.03
Peak level 83.4 %
Extraction speed 2.7 X
Track quality 99.9 %
Test CRC 44EA17CF
Copy CRC 45CB48FC
Cannot be verified as accurate (confidence 1) [ED70653F], AccurateRip returned [4D797B19] (AR v2)
Copy OK
Track 22
Filename F:\MIMIC\STRADELLA - LA SUSANNA (Curtis)\CD 1\122 Recitativo (Testo).wav
Pre-gap length 0:00:00.02
Peak level 63.5 %
Extraction speed 3.3 X
Track quality 100.0 %
Test CRC A33869B3
Copy CRC A33869B3
Accurately ripped (confidence 1) [D80D7D47] (AR v1)
Copy OK
Track 23
Filename F:\MIMIC\STRADELLA - LA SUSANNA (Curtis)\CD 1\123 [No. 11] Aria (Testo).wav
Pre-gap length 0:00:00.03
Peak level 95.1 %
Extraction speed 3.3 X
Track quality 100.0 %
Test CRC FA7963A9
Copy CRC 3590E450
Cannot be verified as accurate (confidence 1) [63094E4A], AccurateRip returned [0AF028B0] (AR v2)
Copy OK
Track 24
Filename F:\MIMIC\STRADELLA - LA SUSANNA (Curtis)\CD 1\124 Recitativo (Testo).wav
Pre-gap length 0:00:00.02
Peak level 76.6 %
Extraction speed 2.4 X
Track quality 100.0 %
Test CRC 8AC51556
Copy CRC 8AC51556
Accurately ripped (confidence 1) [9BEF29A5] (AR v1)
Copy OK
Track 25
Filename F:\MIMIC\STRADELLA - LA SUSANNA (Curtis)\CD 1\125 [No. 12] Duetto (Giudici I & II).wav
Pre-gap length 0:00:00.03
Peak level 70.4 %
Extraction speed 2.7 X
Track quality 100.0 %
Test CRC AD2054CF
Copy CRC AD2054CF
Accurately ripped (confidence 1) [771A0B9C] (AR v1)
Copy OK
Track 26
Filename F:\MIMIC\STRADELLA - LA SUSANNA (Curtis)\CD 1\126 Recitativo (Susanna).wav
Pre-gap length 0:00:00.03
Peak level 73.3 %
Extraction speed 2.3 X
Track quality 100.0 %
Test CRC 4CCD23F3
Copy CRC 4CCD23F3
Accurately ripped (confidence 1) [4B228B9B] (AR v1)
Copy OK
Track 27
Filename F:\MIMIC\STRADELLA - LA SUSANNA (Curtis)\CD 1\127 [No. 13] Duetto (Giudici I & II).wav
Pre-gap length 0:00:00.02
Peak level 55.7 %
Extraction speed 2.7 X
Track quality 100.0 %
Test CRC EB41D2E9
Copy CRC EB41D2E9
Accurately ripped (confidence 1) [B532DD71] (AR v1)
Copy OK
Track 28
Filename F:\MIMIC\STRADELLA - LA SUSANNA (Curtis)\CD 1\128 Recitativo (Susanna, Giudici I & II).wav
Pre-gap length 0:00:00.02
Peak level 74.6 %
Extraction speed 2.0 X
Track quality 99.8 %
Test CRC BCF43883
Copy CRC BCF43883
Accurately ripped (confidence 1) [5396372B] (AR v1)
Copy OK
Track 29
Filename F:\MIMIC\STRADELLA - LA SUSANNA (Curtis)\CD 1\129 Recitativo (Testo).wav
Pre-gap length 0:00:00.02
Peak level 65.3 %
Extraction speed 3.0 X
Track quality 100.0 %
Test CRC D4E509D3
Copy CRC D4E509D3
Accurately ripped (confidence 1) [0F0DDB08] (AR v1)
Copy OK
Track 30
Filename F:\MIMIC\STRADELLA - LA SUSANNA (Curtis)\CD 1\130 [No. 14] Choro à 5.wav
Pre-gap length 0:00:00.02
Peak level 82.4 %
Extraction speed 3.8 X
Track quality 100.0 %
Test CRC 7CD52EF3
Copy CRC 7CD52EF3
Accurately ripped (confidence 1) [642B32D3] (AR v1)
Copy OK
28 track(s) accurately ripped
2 track(s) could not be verified as accurate
Some tracks could not be verified as accurate
No errors occurred
End of status report
==== Log checksum B1F6301AFE9B441CDE7136736845C423E8D1BA8910D42065C996B0FD960C8063 ====
CD2

скрытый текст

Exact Audio Copy V1.0 beta 3 from 29. August 2011
EAC extraction logfile from 18. May 2015, 19:34
Kirkby, Nelson, Jacobs, Hill, Cold, Curtis / La Susanna
Used drive : hp CDDVDW TS-L633N Adapter: 1 ID: 0
Read mode : Secure
Utilize accurate stream : Yes
Defeat audio cache : Yes
Make use of C2 pointers : No
Read offset correction : 6
Overread into Lead-In and Lead-Out : No
Fill up missing offset samples with silence : Yes
Delete leading and trailing silent blocks : No
Null samples used in CRC calculations : Yes
Used interface : Native Win32 interface for Win NT & 2000
Gap handling : Appended to previous track
Used output format : User Defined Encoder
Selected bitrate : 1024 kBit/s
Quality : High
Add ID3 tag : No
Command line compressor : C:\Program Files (x86)\Exact Audio Copy\Flac\flac.exe
Additional command line options : -8 -V -T "ARTIST=%artist%" -T "TITLE=%title%" -T "ALBUM=%albumtitle%" -T "DATE=%year%" -T "TRACKNUMBER=%tracknr%" -T "GENRE=%genre%" -T "PERFORMER=%albuminterpret%" -T "COMPOSER=%composer%" %haslyrics%--tag-from-file=LYRICS="%lyricsfile%"%haslyrics% -T "ALBUMARTIST=%albumartist%" -T "DISCNUMBER=%cdnumber%" -T "TOTALDISCS=%totalcds%" -T "TOTALTRACKS=%numtracks%" -T "COMMENT=%comment%" %source% -o %dest%
TOC of the extracted CD
Track | Start | Length | Start sector | End sector
---------------------------------------------------------
1 | 0:00.00 | 2:51.35 | 0 | 12859
2 | 2:51.35 | 1:16.32 | 12860 | 18591
3 | 4:07.67 | 6:36.65 | 18592 | 48356
4 | 10:44.57 | 0:55.50 | 48357 | 52531
5 | 11:40.32 | 3:24.48 | 52532 | 67879
6 | 15:05.05 | 1:07.57 | 67880 | 72961
7 | 16:12.62 | 0:33.55 | 72962 | 75491
8 | 16:46.42 | 1:31.03 | 75492 | 82319
9 | 18:17.45 | 1:47.52 | 82320 | 90396
10 | 20:05.22 | 3:39.60 | 90397 | 106881
11 | 23:45.07 | 1:15.38 | 106882 | 112544
12 | 25:00.45 | 0:45.10 | 112545 | 115929
13 | 25:45.55 | 0:30.25 | 115930 | 118204
14 | 26:16.05 | 1:31.20 | 118205 | 125049
15 | 27:47.25 | 0:45.37 | 125050 | 128461
16 | 28:32.62 | 0:28.70 | 128462 | 130631
17 | 29:01.57 | 2:09.15 | 130632 | 140321
18 | 31:10.72 | 2:31.38 | 140322 | 151684
19 | 33:42.35 | 0:58.37 | 151685 | 156071
20 | 34:40.72 | 2:00.48 | 156072 | 165119
21 | 36:41.45 | 3:06.72 | 165120 | 179141
22 | 39:48.42 | 0:47.13 | 179142 | 182679
23 | 40:35.55 | 1:02.12 | 182680 | 187341
24 | 41:37.67 | 1:52.63 | 187342 | 195804
25 | 43:30.55 | 1:08.25 | 195805 | 200929
Track 1
Filename F:\MIMIC\STRADELLA - LA SUSANNA (Curtis)\CD 2\201 [No. 15] Aria (Testo).wav
Pre-gap length 0:00:02.00
Peak level 87.7 %
Extraction speed 2.1 X
Track quality 100.0 %
Test CRC 947B8973
Copy CRC 947B8973
Accurately ripped (confidence 1) [D8C505DA] (AR v1)
Copy OK
Track 2
Filename F:\MIMIC\STRADELLA - LA SUSANNA (Curtis)\CD 2\202 Recitativo (Testo).wav
Pre-gap length 0:00:00.03
Peak level 45.2 %
Extraction speed 1.8 X
Track quality 100.0 %
Test CRC 23F02856
Copy CRC 23F02856
Accurately ripped (confidence 1) [9D6F5BE9] (AR v1)
Copy OK
Track 3
Filename F:\MIMIC\STRADELLA - LA SUSANNA (Curtis)\CD 2\203 [No. 16] Aria (Susanna).wav
Pre-gap length 0:00:00.02
Peak level 93.1 %
Extraction speed 2.7 X
Track quality 100.0 %
Test CRC 480B026C
Copy CRC 480B026C
Accurately ripped (confidence 1) [BB9AF13A] (AR v1)
Copy OK
Track 4
Filename F:\MIMIC\STRADELLA - LA SUSANNA (Curtis)\CD 2\204 Recitativo (Susanna).wav
Pre-gap length 0:00:00.02
Peak level 74.9 %
Extraction speed 1.9 X
Track quality 100.0 %
Test CRC 6F486F27
Copy CRC 6F486F27
Accurately ripped (confidence 1) [1D817E38] (AR v1)
Copy OK
Track 5
Filename F:\MIMIC\STRADELLA - LA SUSANNA (Curtis)\CD 2\205 [No. 17] Aria (Susanna).wav
Pre-gap length 0:00:00.02
Peak level 68.2 %
Extraction speed 2.8 X
Track quality 100.0 %
Test CRC BB62CAF1
Copy CRC BB62CAF1
Accurately ripped (confidence 1) [AF66F50F] (AR v1)
Copy OK
Track 6
Filename F:\MIMIC\STRADELLA - LA SUSANNA (Curtis)\CD 2\206 Recitativo (Testo).wav
Pre-gap length 0:00:00.03
Peak level 58.9 %
Extraction speed 2.2 X
Track quality 100.0 %
Test CRC 944526A6
Copy CRC 944526A6
Accurately ripped (confidence 1) [4963B73D] (AR v1)
Copy OK
Track 7
Filename F:\MIMIC\STRADELLA - LA SUSANNA (Curtis)\CD 2\207 Recitativo (Giudice I).wav
Pre-gap length 0:00:00.02
Peak level 80.5 %
Extraction speed 1.6 X
Track quality 100.0 %
Test CRC C5441721
Copy CRC C5441721
Accurately ripped (confidence 1) [988B7630] (AR v1)
Copy OK
Track 8
Filename F:\MIMIC\STRADELLA - LA SUSANNA (Curtis)\CD 2\208 [No. 18] Duetto (Giudici I & II).wav
Pre-gap length 0:00:00.02
Peak level 76.2 %
Extraction speed 2.5 X
Track quality 100.0 %
Test CRC 8A2599CB
Copy CRC 8A2599CB
Accurately ripped (confidence 1) [F7412EED] (AR v1)
Copy OK
Track 9
Filename F:\MIMIC\STRADELLA - LA SUSANNA (Curtis)\CD 2\209 Recitativo (Testo).wav
Pre-gap length 0:00:00.03
Peak level 65.8 %
Extraction speed 2.7 X
Track quality 100.0 %
Test CRC 0F03AC98
Copy CRC 0F03AC98
Accurately ripped (confidence 1) [1CEEE940] (AR v1)
Copy OK
Track 10
Filename F:\MIMIC\STRADELLA - LA SUSANNA (Curtis)\CD 2\210 [No. 19] Aria (Susanna).wav
Pre-gap length 0:00:00.02
Peak level 84.4 %
Extraction speed 3.1 X
Track quality 100.0 %
Test CRC 6752EC9C
Copy CRC 6752EC9C
Accurately ripped (confidence 1) [3174F5B3] (AR v1)
Copy OK
Track 11
Filename F:\MIMIC\STRADELLA - LA SUSANNA (Curtis)\CD 2\211 Recitativo (Susanna).wav
Pre-gap length 0:00:00.02
Peak level 97.8 %
Extraction speed 2.4 X
Track quality 100.0 %
Test CRC 758F538D
Copy CRC 758F538D
Accurately ripped (confidence 1) [E11CA4E0] (AR v1)
Copy OK
Track 12
Filename F:\MIMIC\STRADELLA - LA SUSANNA (Curtis)\CD 2\212 Recitativo (Testo).wav
Pre-gap length 0:00:00.03
Peak level 44.6 %
Extraction speed 1.1 X
Track quality 99.7 %
Test CRC 18F3BA06
Copy CRC 18F3BA06
Accurately ripped (confidence 1) [761F1F8A] (AR v1)
Copy OK
Track 13
Filename F:\MIMIC\STRADELLA - LA SUSANNA (Curtis)\CD 2\213 Recitativo (Daniele).wav
Pre-gap length 0:00:00.03
Peak level 66.5 %
Extraction speed 1.7 X
Track quality 100.0 %
Test CRC 7C79F29B
Copy CRC 7C79F29B
Accurately ripped (confidence 1) [AE9DB642] (AR v1)
Copy OK
Track 14
Filename F:\MIMIC\STRADELLA - LA SUSANNA (Curtis)\CD 2\214 [No. 20] Aria (Daniele).wav
Pre-gap length 0:00:00.03
Peak level 61.3 %
Extraction speed 1.8 X
Track quality 99.8 %
Test CRC 3BEA22EA
Copy CRC 3BEA22EA
Accurately ripped (confidence 1) [335C09A2] (AR v1)
Copy OK
Track 15
Filename F:\MIMIC\STRADELLA - LA SUSANNA (Curtis)\CD 2\215 Recitativo (Daniele).wav
Pre-gap length 0:00:00.03
Peak level 56.3 %
Extraction speed 1.1 X
Track quality 99.7 %
Test CRC 4DED5879
Copy CRC 4DED5879
Accurately ripped (confidence 1) [2A521741] (AR v1)
Copy OK
Track 16
Filename F:\MIMIC\STRADELLA - LA SUSANNA (Curtis)\CD 2\216 Recitativo (Testo).wav
Pre-gap length 0:00:00.02
Peak level 42.6 %
Extraction speed 1.6 X
Track quality 100.0 %
Test CRC 67798203
Copy CRC 67798203
Accurately ripped (confidence 1) [3070050B] (AR v1)
Copy OK
Track 17
Filename F:\MIMIC\STRADELLA - LA SUSANNA (Curtis)\CD 2\217 [No. 21] Aria (Daniele) - Recitativo (Daniele & Giudice I).wav
Pre-gap length 0:00:00.02
Peak level 54.9 %
Extraction speed 3.1 X
Track quality 100.0 %
Test CRC 09A06D03
Copy CRC 09A06D03
Accurately ripped (confidence 1) [5A8FF547] (AR v1)
Copy OK
Track 18
Filename F:\MIMIC\STRADELLA - LA SUSANNA (Curtis)\CD 2\218 [No. 22] Aria (Daniele.wav
Pre-gap length 0:00:00.02
Peak level 64.1 %
Extraction speed 3.3 X
Track quality 100.0 %
Test CRC FC385172
Copy CRC FC385172
Accurately ripped (confidence 1) [197F5A1B] (AR v1)
Copy OK
Track 19
Filename F:\MIMIC\STRADELLA - LA SUSANNA (Curtis)\CD 2\219 Recitativo (Daniele & Giudice II).wav
Pre-gap length 0:00:00.03
Peak level 50.6 %
Extraction speed 2.4 X
Track quality 100.0 %
Test CRC AA3BF9EB
Copy CRC AA3BF9EB
Accurately ripped (confidence 1) [AABB09B3] (AR v1)
Copy OK
Track 20
Filename F:\MIMIC\STRADELLA - LA SUSANNA (Curtis)\CD 2\220 Recitativo (Testo).wav
Pre-gap length 0:00:00.02
Peak level 46.4 %
Extraction speed 3.2 X
Track quality 100.0 %
Test CRC 1961B8BF
Copy CRC 1961B8BF
Accurately ripped (confidence 1) [CCEF2685] (AR v1)
Copy OK
Track 21
Filename F:\MIMIC\STRADELLA - LA SUSANNA (Curtis)\CD 2\221 '[No. 23] A 3 (Susanna & due Giudici).wav
Pre-gap length 0:00:00.03
Peak level 55.3 %
Extraction speed 3.6 X
Track quality 100.0 %
Test CRC ADC97F0F
Copy CRC ADC97F0F
Accurately ripped (confidence 1) [C48A72E2] (AR v1)
Copy OK
Track 22
Filename F:\MIMIC\STRADELLA - LA SUSANNA (Curtis)\CD 2\222 Recitativo Giudice I).wav
Pre-gap length 0:00:00.02
Peak level 56.3 %
Extraction speed 2.4 X
Track quality 100.0 %
Test CRC 91877F59
Copy CRC 91877F59
Accurately ripped (confidence 1) [5E1AE73A] (AR v1)
Copy OK
Track 23
Filename F:\MIMIC\STRADELLA - LA SUSANNA (Curtis)\CD 2\223 Recitativo (Testo).wav
Pre-gap length 0:00:00.03
Peak level 41.4 %
Extraction speed 2.7 X
Track quality 100.0 %
Test CRC 7B052ACC
Copy CRC 7B052ACC
Accurately ripped (confidence 1) [0CE3628A] (AR v1)
Copy OK
Track 24
Filename F:\MIMIC\STRADELLA - LA SUSANNA (Curtis)\CD 2\224 [No. 24] Choro à 3.wav
Pre-gap length 0:00:00.02
Peak level 76.6 %
Extraction speed 0.6 X
Track quality 99.4 %
Test CRC A8B2DC55
Copy CRC 618E4804
Cannot be verified as accurate (confidence 1) [70AEBD73], AccurateRip returned [D74F4F08] (AR v2)
Copy OK
Track 25
Filename F:\MIMIC\STRADELLA - LA SUSANNA (Curtis)\CD 2\225 [No. 25] Choro à 5.wav
Pre-gap length 0:00:00.03
Peak level 75.0 %
Extraction speed 0.5 X
Track quality 99.2 %
Test CRC 5F5BBD3B
Copy CRC 13F92F30
Cannot be verified as accurate (confidence 1) [EB8F0D1B], AccurateRip returned [D4EF9910] (AR v2)
Copy OK
23 track(s) accurately ripped
2 track(s) could not be verified as accurate
Some tracks could not be verified as accurate
No errors occurred
End of status report
==== Log checksum 115DD2195A67A686223CD3E5EEC70F19832D0DCB9EB41B98E8F56EAEBA26FAB6 ====
Содержание индексной карты (.CUE)
CD1

скрытый текст

REM GENRE Classical
REM DATE 1991
REM DISCID C10C281E
REM COMMENT "ExactAudioCopy v1.0b3"
PERFORMER "Kweksilber, Nelson, Jacobs, Hill, Cold, Curtis"
TITLE "La Susanna"
FILE "101 Sinfonia avanti l'oratorio.wav" WAVE
TRACK 01 AUDIO
TITLE "Sinfonia avanti l'oratorio"
PERFORMER "Kweksilber, Nelson, Jacobs, Hill, Cold, Curtis"
INDEX 01 00:00:00
TRACK 02 AUDIO
TITLE "Recitativo (Testo)"
PERFORMER "Kweksilber, Nelson, Jacobs, Hill, Cold, Curtis"
INDEX 00 06:03:03
FILE "102 Recitativo (Testo).wav" WAVE
INDEX 01 00:00:00
TRACK 03 AUDIO
TITLE "[No. 1] Choro а 3"
PERFORMER "Kweksilber, Nelson, Jacobs, Hill, Cold, Curtis"
INDEX 00 01:25:70
FILE "103 [No. 1] Choro а 3.wav" WAVE
INDEX 01 00:00:00
TRACK 04 AUDIO
TITLE "Recitativo (Testo)"
PERFORMER "Kweksilber, Nelson, Jacobs, Hill, Cold, Curtis"
INDEX 00 01:54:60
FILE "104 Recitativo (Testo).wav" WAVE
INDEX 01 00:00:00
TRACK 05 AUDIO
TITLE "[No. 2] Aria (Testo)"
PERFORMER "Kweksilber, Nelson, Jacobs, Hill, Cold, Curtis"
INDEX 00 00:40:08
FILE "105 [No. 2] Aria (Testo).wav" WAVE
INDEX 01 00:00:00
TRACK 06 AUDIO
TITLE "Recitativo (Testo)"
PERFORMER "Kweksilber, Nelson, Jacobs, Hill, Cold, Curtis"
INDEX 00 02:00:20
FILE "106 Recitativo (Testo).wav" WAVE
INDEX 01 00:00:00
TRACK 07 AUDIO
TITLE "{No. 3] Aria (Giudice I)"
PERFORMER "Kweksilber, Nelson, Jacobs, Hill, Cold, Curtis"
INDEX 00 00:58:55
FILE "107 {No. 3] Aria (Giudice I).wav" WAVE
INDEX 01 00:00:00
TRACK 08 AUDIO
TITLE "Recitativo (Giudici I & II)"
PERFORMER "Kweksilber, Nelson, Jacobs, Hill, Cold, Curtis"
INDEX 00 02:35:40
FILE "108 Recitativo (Giudici I & II).wav" WAVE
INDEX 01 00:00:00
TRACK 09 AUDIO
TITLE "[No. 4] Aria (Giudice II)"
PERFORMER "Kweksilber, Nelson, Jacobs, Hill, Cold, Curtis"
INDEX 00 01:49:27
FILE "109 [No. 4] Aria (Giudice II).wav" WAVE
INDEX 01 00:00:00
TRACK 10 AUDIO
TITLE "Recitativo (Giudice I)"
PERFORMER "Kweksilber, Nelson, Jacobs, Hill, Cold, Curtis"
INDEX 00 02:32:15
FILE "110 Recitativo (Giudice I).wav" WAVE
INDEX 01 00:00:00
TRACK 11 AUDIO
TITLE "[No. 5] Duetto (Giudici I & II)"
PERFORMER "Kweksilber, Nelson, Jacobs, Hill, Cold, Curtis"
INDEX 00 00:30:65
FILE "111 [No. 5] Duetto (Giudici I & II).wav" WAVE
INDEX 01 00:00:00
TRACK 12 AUDIO
TITLE "Recitativo (Giudice I)"
PERFORMER "Kweksilber, Nelson, Jacobs, Hill, Cold, Curtis"
INDEX 00 01:55:50
FILE "112 Recitativo (Giudice I).wav" WAVE
INDEX 01 00:00:00
TRACK 13 AUDIO
TITLE "[No. 6] Aria (Giudice I)"
PERFORMER "Kweksilber, Nelson, Jacobs, Hill, Cold, Curtis"
INDEX 00 00:27:00
FILE "113 [No. 6] Aria (Giudice I).wav" WAVE
INDEX 01 00:00:00
TRACK 14 AUDIO
TITLE "Recitativo (Giudici I & II)"
PERFORMER "Kweksilber, Nelson, Jacobs, Hill, Cold, Curtis"
INDEX 00 01:33:62
FILE "114 Recitativo (Giudici I & II).wav" WAVE
INDEX 01 00:00:00
TRACK 15 AUDIO
TITLE "Recitativo (Testo)"
PERFORMER "Kweksilber, Nelson, Jacobs, Hill, Cold, Curtis"
INDEX 00 00:17:57
FILE "115 Recitativo (Testo).wav" WAVE
INDEX 01 00:00:00
TRACK 16 AUDIO
TITLE "[No. 7] Choro а 3"
PERFORMER "Kweksilber, Nelson, Jacobs, Hill, Cold, Curtis"
INDEX 00 01:49:02
FILE "116 [No. 7] Choro а 3.wav" WAVE
INDEX 01 00:00:00
TRACK 17 AUDIO
TITLE "Recitativo (Testo)"
PERFORMER "Kweksilber, Nelson, Jacobs, Hill, Cold, Curtis"
INDEX 00 01:41:47
FILE "117 Recitativo (Testo).wav" WAVE
INDEX 01 00:00:00
TRACK 18 AUDIO
TITLE "[No. 8] Aria (Susanna)"
PERFORMER "Kweksilber, Nelson, Jacobs, Hill, Cold, Curtis"
INDEX 00 01:34:12
FILE "118 [No. 8] Aria (Susanna).wav" WAVE
INDEX 01 00:00:00
TRACK 19 AUDIO
TITLE "[No. 9] Aria (Susanna)"
PERFORMER "Kweksilber, Nelson, Jacobs, Hill, Cold, Curtis"
INDEX 00 02:16:00
FILE "119 [No. 9] Aria (Susanna).wav" WAVE
INDEX 01 00:00:00
TRACK 20 AUDIO
TITLE "Recitativo (Susanna)"
PERFORMER "Kweksilber, Nelson, Jacobs, Hill, Cold, Curtis"
INDEX 00 03:29:18
FILE "120 Recitativo (Susanna).wav" WAVE
INDEX 01 00:00:00
TRACK 21 AUDIO
TITLE "[No. 10] Aria (Susanna)"
PERFORMER "Kweksilber, Nelson, Jacobs, Hill, Cold, Curtis"
INDEX 00 01:06:60
FILE "121 [No. 10] Aria (Susanna).wav" WAVE
INDEX 01 00:00:00
TRACK 22 AUDIO
TITLE "Recitativo (Testo)"
PERFORMER "Kweksilber, Nelson, Jacobs, Hill, Cold, Curtis"
INDEX 00 02:44:40
FILE "122 Recitativo (Testo).wav" WAVE
INDEX 01 00:00:00
TRACK 23 AUDIO
TITLE "[No. 11] Aria (Testo)"
PERFORMER "Kweksilber, Nelson, Jacobs, Hill, Cold, Curtis"
INDEX 00 01:57:05
FILE "123 [No. 11] Aria (Testo).wav" WAVE
INDEX 01 00:00:00
TRACK 24 AUDIO
TITLE "Recitativo (Testo)"
PERFORMER "Kweksilber, Nelson, Jacobs, Hill, Cold, Curtis"
INDEX 00 01:53:65
FILE "124 Recitativo (Testo).wav" WAVE
INDEX 01 00:00:00
TRACK 25 AUDIO
TITLE "[No. 12] Duetto (Giudici I & II)"
PERFORMER "Kweksilber, Nelson, Jacobs, Hill, Cold, Curtis"
INDEX 00 00:44:15
FILE "125 [No. 12] Duetto (Giudici I & II).wav" WAVE
INDEX 01 00:00:00
TRACK 26 AUDIO
TITLE "Recitativo (Susanna)"
PERFORMER "Kweksilber, Nelson, Jacobs, Hill, Cold, Curtis"
INDEX 00 00:59:07
FILE "126 Recitativo (Susanna).wav" WAVE
INDEX 01 00:00:00
TRACK 27 AUDIO
TITLE "[No. 13] Duetto (Giudici I & II)"
PERFORMER "Kweksilber, Nelson, Jacobs, Hill, Cold, Curtis"
INDEX 00 00:38:20
FILE "127 [No. 13] Duetto (Giudici I & II).wav" WAVE
INDEX 01 00:00:00
TRACK 28 AUDIO
TITLE "Recitativo (Susanna, Giudici I & II)"
PERFORMER "Kweksilber, Nelson, Jacobs, Hill, Cold, Curtis"
INDEX 00 00:58:13
FILE "128 Recitativo (Susanna, Giudici I & II).wav" WAVE
INDEX 01 00:00:00
TRACK 29 AUDIO
TITLE "Recitativo (Testo)"
PERFORMER "Kweksilber, Nelson, Jacobs, Hill, Cold, Curtis"
INDEX 00 01:26:68
FILE "129 Recitativo (Testo).wav" WAVE
INDEX 01 00:00:00
TRACK 30 AUDIO
TITLE "[No. 14] Choro а 5"
PERFORMER "Kweksilber, Nelson, Jacobs, Hill, Cold, Curtis"
INDEX 00 01:11:38
FILE "130 [No. 14] Choro а 5.wav" WAVE
INDEX 01 00:00:00
CD2

скрытый текст

REM GENRE Classical
REM DATE 1991
REM DISCID 5C0A7719
REM COMMENT "ExactAudioCopy v1.0b3"
PERFORMER "Kirkby, Nelson, Jacobs, Hill, Cold, Curtis"
TITLE "La Susanna"
FILE "201 [No. 15] Aria (Testo).wav" WAVE
TRACK 01 AUDIO
TITLE "[No. 15] Aria (Testo)"
PERFORMER "Kirkby, Nelson, Jacobs, Hill, Cold, Curtis"
INDEX 01 00:00:00
TRACK 02 AUDIO
TITLE "Recitativo (Testo)"
PERFORMER "Kirkby, Nelson, Jacobs, Hill, Cold, Curtis"
INDEX 00 02:51:32
FILE "202 Recitativo (Testo).wav" WAVE
INDEX 01 00:00:00
TRACK 03 AUDIO
TITLE "[No. 16] Aria (Susanna)"
PERFORMER "Kirkby, Nelson, Jacobs, Hill, Cold, Curtis"
INDEX 00 01:16:30
FILE "203 [No. 16] Aria (Susanna).wav" WAVE
INDEX 01 00:00:00
TRACK 04 AUDIO
TITLE "Recitativo (Susanna)"
PERFORMER "Kirkby, Nelson, Jacobs, Hill, Cold, Curtis"
INDEX 00 06:36:63
FILE "204 Recitativo (Susanna).wav" WAVE
INDEX 01 00:00:00
TRACK 05 AUDIO
TITLE "[No. 17] Aria (Susanna)"
PERFORMER "Kirkby, Nelson, Jacobs, Hill, Cold, Curtis"
INDEX 00 00:55:48
FILE "205 [No. 17] Aria (Susanna).wav" WAVE
INDEX 01 00:00:00
TRACK 06 AUDIO
TITLE "Recitativo (Testo)"
PERFORMER "Kirkby, Nelson, Jacobs, Hill, Cold, Curtis"
INDEX 00 03:24:45
FILE "206 Recitativo (Testo).wav" WAVE
INDEX 01 00:00:00
TRACK 07 AUDIO
TITLE "Recitativo (Giudice I)"
PERFORMER "Kirkby, Nelson, Jacobs, Hill, Cold, Curtis"
INDEX 00 01:07:55
FILE "207 Recitativo (Giudice I).wav" WAVE
INDEX 01 00:00:00
TRACK 08 AUDIO
TITLE "[No. 18] Duetto (Giudici I & II)"
PERFORMER "Kirkby, Nelson, Jacobs, Hill, Cold, Curtis"
INDEX 00 00:33:53
FILE "208 [No. 18] Duetto (Giudici I & II).wav" WAVE
INDEX 01 00:00:00
TRACK 09 AUDIO
TITLE "Recitativo (Testo)"
PERFORMER "Kirkby, Nelson, Jacobs, Hill, Cold, Curtis"
INDEX 00 01:31:00
FILE "209 Recitativo (Testo).wav" WAVE
INDEX 01 00:00:00
TRACK 10 AUDIO
TITLE "[No. 19] Aria (Susanna)"
PERFORMER "Kirkby, Nelson, Jacobs, Hill, Cold, Curtis"
INDEX 00 01:47:50
FILE "210 [No. 19] Aria (Susanna).wav" WAVE
INDEX 01 00:00:00
TRACK 11 AUDIO
TITLE "Recitativo (Susanna)"
PERFORMER "Kirkby, Nelson, Jacobs, Hill, Cold, Curtis"
INDEX 00 03:39:58
FILE "211 Recitativo (Susanna).wav" WAVE
INDEX 01 00:00:00
TRACK 12 AUDIO
TITLE "Recitativo (Testo)"
PERFORMER "Kirkby, Nelson, Jacobs, Hill, Cold, Curtis"
INDEX 00 01:15:35
FILE "212 Recitativo (Testo).wav" WAVE
INDEX 01 00:00:00
TRACK 13 AUDIO
TITLE "Recitativo (Daniele)"
PERFORMER "Kirkby, Nelson, Jacobs, Hill, Cold, Curtis"
INDEX 00 00:45:07
FILE "213 Recitativo (Daniele).wav" WAVE
INDEX 01 00:00:00
TRACK 14 AUDIO
TITLE "[No. 20] Aria (Daniele)"
PERFORMER "Kirkby, Nelson, Jacobs, Hill, Cold, Curtis"
INDEX 00 00:30:22
FILE "214 [No. 20] Aria (Daniele).wav" WAVE
INDEX 01 00:00:00
TRACK 15 AUDIO
TITLE "Recitativo (Daniele)"
PERFORMER "Kirkby, Nelson, Jacobs, Hill, Cold, Curtis"
INDEX 00 01:31:17
FILE "215 Recitativo (Daniele).wav" WAVE
INDEX 01 00:00:00
TRACK 16 AUDIO
TITLE "Recitativo (Testo)"
PERFORMER "Kirkby, Nelson, Jacobs, Hill, Cold, Curtis"
INDEX 00 00:45:35
FILE "216 Recitativo (Testo).wav" WAVE
INDEX 01 00:00:00
TRACK 17 AUDIO
TITLE "[No. 21] Aria (Daniele) - Recitativo (Daniele & Giudice I)"
PERFORMER "Kirkby, Nelson, Jacobs, Hill, Cold, Curtis"
INDEX 00 00:28:68
FILE "217 [No. 21] Aria (Daniele) - Recitativo (Daniele & Giudice I).wav" WAVE
INDEX 01 00:00:00
TRACK 18 AUDIO
TITLE "[No. 22] Aria (Daniele"
PERFORMER "Kirkby, Nelson, Jacobs, Hill, Cold, Curtis"
INDEX 00 02:09:13
FILE "218 [No. 22] Aria (Daniele.wav" WAVE
INDEX 01 00:00:00
TRACK 19 AUDIO
TITLE "Recitativo (Daniele & Giudice II)"
PERFORMER "Kirkby, Nelson, Jacobs, Hill, Cold, Curtis"
INDEX 00 02:31:35
FILE "219 Recitativo (Daniele & Giudice II).wav" WAVE
INDEX 01 00:00:00
TRACK 20 AUDIO
TITLE "Recitativo (Testo)"
PERFORMER "Kirkby, Nelson, Jacobs, Hill, Cold, Curtis"
INDEX 00 00:58:35
FILE "220 Recitativo (Testo).wav" WAVE
INDEX 01 00:00:00
TRACK 21 AUDIO
TITLE "'[No. 23] A 3 (Susanna & due Giudici)"
PERFORMER "Kirkby, Nelson, Jacobs, Hill, Cold, Curtis"
INDEX 00 02:00:45
FILE "221 '[No. 23] A 3 (Susanna & due Giudici).wav" WAVE
INDEX 01 00:00:00
TRACK 22 AUDIO
TITLE "Recitativo Giudice I)"
PERFORMER "Kirkby, Nelson, Jacobs, Hill, Cold, Curtis"
INDEX 00 03:06:70
FILE "222 Recitativo Giudice I).wav" WAVE
INDEX 01 00:00:00
TRACK 23 AUDIO
TITLE "Recitativo (Testo)"
PERFORMER "Kirkby, Nelson, Jacobs, Hill, Cold, Curtis"
INDEX 00 00:47:10
FILE "223 Recitativo (Testo).wav" WAVE
INDEX 01 00:00:00
TRACK 24 AUDIO
TITLE "[No. 24] Choro а 3"
PERFORMER "Kirkby, Nelson, Jacobs, Hill, Cold, Curtis"
INDEX 00 01:02:10
FILE "224 [No. 24] Choro а 3.wav" WAVE
INDEX 01 00:00:00
TRACK 25 AUDIO
TITLE "[No. 25] Choro а 5"
PERFORMER "Kirkby, Nelson, Jacobs, Hill, Cold, Curtis"
INDEX 00 01:52:60
FILE "225 [No. 25] Choro а 5.wav" WAVE
INDEX 01 00:00:00
[teatrix.ru].t21240.torrent 
Торрент: Зарегистрирован [ 2016-03-20 00:49 ] · 35DC6A4DA1A54FB60D34390F8C921714BFBC9885

Скачать .torrent

Скачать

23 KB

Статус: проверено
Скачан: 0 раз
Размер: 456 MB
terms.php



Быстрый ответ

Имя:

      
Для отправки сообщений необходимо включить JavaScript
Показать сообщения:    

Текущее время: 18-Янв 00:21

Часовой пояс: UTC + 3


Вы можете начинать темы
Вы можете отвечать на сообщения
Вы не можете редактировать свои сообщения
Вы не можете удалять свои сообщения
Вы не можете голосовать в опросах
Вы не можете прикреплять файлы к сообщениям
Вы можете скачивать файлы