[TR24][OF] Alison Balsom (feat. The Guy Barker Orchestra) - Paris (Erik Satie, Astor Piazzolla, Eddie Barclay, Michel Legrand, Eddy Marnay, Olivier Messiaen, Maurice Ravel, Joseph Kosma, Django Reinhardt) - 2014 (Classical / Trumpet)

DL-List and Torrent activity [Update пиров]
Size:  485 MB   |    Registered:  7 months 6 days   |    Completed:  0 times

Seeder not seen: Never



Alison Balsom
-Год издания: 2014
Жанр: Classical / Trumpet
Издатель (лейбл): Warner Classics
Продолжительность: 00:52:04
Наличие сканов: Sleeve- -Контейнер: FLAC (*.flac)
Тип рипа: tracks
Разрядность: 24bit /44.1kHz
Количество каналов: 2.0
-ТреклистErik Alfred Leslie Satie (1866-1925)
3 Gymnopédies
01.III. Lent et grave (2:32)
Astor Piazzólla (1921-1992)
Histoire du Tango
02. II. Café 1930 (7:09)
03. Oblivion (4:08)
Eddie Barclay (1921-2005) / Michel Legrand (b. 1932) / Eddy Marnay (1920-2003)
La valse des lilas
04. La valse des lilas (3:33)
Olivier Eugène Prosper Charles Messiaen (1908-1992)
Vingt regards sur l'enfant Jesus: XV. La baiser de l'enfant Jesus
05. Tres lent, calme (5:45)
06. Modéré I (2:03)
07. Modéré II (3:00)
Maurice Ravel (1875-1937)
Pièce en forme de habanera
08. Pièce en forme de habanera (2:47)
Piano Concerto in G Major
09. II. Adagio assai (8:26)
Erik Alfred Leslie Satie
3 Gnossiennes
10. III. Lent (3:25)
Joseph Kosma (1905-1969)
Les feuilles mortes (Autumn Leaves)
11. Les feuilles mortes (5:01)
Django Rheinardt (1910-1953)
12. Nuages (4:16)

О релизе

An ‘astonishing virtuosa’ (The Times) with ‘limitless potential’ (The Guardian), Alison Balsom is a multi-faceted trumpet player involved in a broad range of musical projects. The pieces on this collection inhabit a common Parisian musical world, but the voices that emerge from them are incredibly varied. From Ravel to Reinhardt, Balsom illustrates the flexibility and expressiveness of her instrument, supported by the orchestra of jazz composer and trumpeter Guy Barker.
One of today’s most in-demand classical music personalities, English trumpeter and BBC Proms darling Alison Balsom shares her love of Paris on this new solo album. After becoming the first British woman to win Gramophone Magazine’s prestigious Artist of the Year award, Alison brings her glamour, poise and dazzling virtuosity to Paris with a selection of music written in and inspired by the most romantic city in the world.
This album marks a major departure for Alison Balsom from the core classical repertoire, with which she has established her distinguished recording and performing career to date, to a crossover album, taking inspiration from a number of different artists and influences. The concept of the album is Paris as seen by artists and composers as diverse as Olivier Messiaen, Astor Piazzolla, Django Rheinardt and Cole Porter. In collaboration with Guy Barker – a trumpeter who has worked with the biggest names in the business, and with a solid reputation in the jazz world – Alison reinterprets the greatest music written about in and about Paris. This album is sure to position Alison amongst the top-selling classical artists with mainstream appeal and broad recognition.
Alison Balsom, trumpet
Miloš Karadaglić, guitar (#2)
Guy Barker Jazz Orchestra
Al Cherry, guitar
Grant Windsor, guitar
Guy Barker, trumpet and conductor
Tim Redmond, conductor

ОтчётыДинамический диапазон

foobar2000 1.2.2 / Dynamic Range Meter 1.1.1
log date: 2015-05-24 12:35:50
Analyzed: Alison Balsom, Miloš Karadaglić, The Guy Barker Orchestra, Guy Barker / Paris (1)
Alison Balsom, The Guy Barker Orchestra, Guy Barker / Paris (2-8)
Alison Balsom, The Guy Barker Orchestra, Tim Redmond / Paris (9-12)
DR Peak RMS Duration Track
DR11 -1.24 dB -15.81 dB 7:09 ?-Histoire du Tango: II. Café 1930
DR10 -0.26 dB -13.93 dB 2:32 ?-3 Gymnopédies: III. Lent et grave
DR9 -0.21 dB -13.81 dB 4:08 ?-Oblivion
DR10 -0.31 dB -13.93 dB 3:33 ?-La valse des lilas
DR12 -0.26 dB -17.24 dB 2:47 ?-Pièce en forme de habanera
DR12 -0.27 dB -15.81 dB 3:25 ?-3 Gnossiennes: III. Lent
DR9 -1.26 dB -14.90 dB 5:01 ?-Les feuilles mortes (Autumn Leaves)
DR10 -0.88 dB -15.43 dB 4:16 ?-Nuages
DR12 -0.77 dB -19.22 dB 5:45 ?-Vingt regards sur l'enfant Jesus: XV. La baiser de l'enfant Jesus - Tres lent, calme
DR12 -0.26 dB -16.17 dB 2:03 ?-Vingt regards sur l'enfant Jesus: XV. La baiser de l'enfant Jesus - Modéré I
DR11 -0.62 dB -16.23 dB 3:00 ?-Vingt regards sur l'enfant Jesus: XV. La baiser de l'enfant Jesus - Modéré II
DR13 -0.21 dB -17.46 dB 8:26 ?-Piano Concerto in G Major: II. Adagio assai
Number of tracks: 12
Official DR value: DR11
Samplerate: 44100 Hz
Channels: 2
Bits per sample: 24
Bitrate: 1274 kbps
Codec: FLAC

Скриншот спектра частот

Доп. информация

При скачивании, если необходимо, переименуйте папку, в которой будет находиться альбомБольшая просьба к скачавшим поддерживать раздачу! Помогайте другим, ведь вам тоже может понадобиться помощь!Не забываем говорить "Спасибо"!Комментарии приветствуются!
Alison Balsom Hi-Res
Torrent: Registered [ 2016-03-20 00:49 ] · A578EE67460ECB5C4BC386E15F5211F976DFFCC4

Download .torrent


20 KB

Status: checked
Completed: 0 times
Size: 485 MB

Quick Reply


Heads necessary to send messages to enable JavaScript
Display posts:    

Current time is: 26-Oct 18:12

All times are UTC + 3

You can post new topics in this forum
You can reply to topics in this forum
You cannot edit your posts in this forum
You cannot delete your posts in this forum
You cannot vote in polls in this forum
You cannot attach files in this forum
You can download files in this forum