(Classical) Pehr Henrik Nordgren - Rock Score; Cello Concerto No.1; TRANSE-CHORAL - Marko Ylönen (Ylonen), Ostrobothnian Chamber Orchestra, Juha Kangas - 2005, FLAC (image+.cue) lossless


 

[Цитировать]

Pehr Henrik Nordgren - Rock Score; Cello Concerto No.1; TRANSE-CHORAL - Marko Ylönen, Ostrobothnian Chamber Orchestra, Juha Kangas
Жанр: Classical
Страна-производитель диска: Sweden
Год издания диска: 2005
Издатель (лейбл): BIS
Номер по каталогу: BIS-CD-1356
Дата записи: 2002
Аудиокодек: FLAC
Тип рипа: image+.cue
Битрейт аудио: lossless
Продолжительность: 67:15
Источник: собственный рип
Наличие сканов в содержимом раздачи: да
Треклист:
Pehr Henrik Nordgren (1944-2008)
[1] Rock Score, Op. 100 (1997)
for 19 strings
[2]-[4] Concerto No.1 for Cello and String Orchestra, Op. 50 (1980)
[5]-[6] TRANSE-CHORAL, Op. 67 (1985)
for 15 strings
Исполнители:
Ostrobothnian Chamber Orchestra
Juha Kangas
conductor
Marko Ylönen cello([2]-[4])

Лог создания рипа

Exact Audio Copy V1.0 beta 3 from 29. August 2011
EAC extraction logfile from 10. January 2015, 20:09
Ostrobothnian Chamber Orchestra, Juha Kangas / Nordgren - Rock Score; Cello Concerto No.1; TRANSE-CHORAL
Used drive : HL-DT-STDVDRAM GU70N Adapter: 0 ID: 0
Read mode : Secure
Utilize accurate stream : Yes
Defeat audio cache : Yes
Make use of C2 pointers : No
Read offset correction : 48
Overread into Lead-In and Lead-Out : No
Fill up missing offset samples with silence : Yes
Delete leading and trailing silent blocks : No
Null samples used in CRC calculations : Yes
Used interface : Native Win32 interface for Win NT & 2000
Used output format : User Defined Encoder
Selected bitrate : 128 kBit/s
Quality : High
Add ID3 tag : No
Command line compressor : C:\Program Files (x86)\Exact Audio Copy\Flac\flac.exe
Additional command line options : -V -8 -T "Date=%year%" -T "Genre=%genre%" %source%
TOC of the extracted CD
Track | Start | Length | Start sector | End sector
---------------------------------------------------------
1 | 0:00.00 | 12:25.28 | 0 | 55902
2 | 12:25.28 | 3:36.49 | 55903 | 72151
3 | 16:02.02 | 5:06.57 | 72152 | 95158
4 | 21:08.59 | 15:03.74 | 95159 | 162957
5 | 36:12.58 | 11:10.58 | 162958 | 213265
6 | 47:23.41 | 19:49.69 | 213266 | 302509
Range status and errors
Selected range
Filename C:\temp\BIS-CD-1356 - Nordgren - Rock Score; Cello Concerto No.1; TRANSE-CHORAL\Nordgren - Rock Score; Cello Concerto No.1; TRANSE-CHORAL.wav
Peak level 99.6 %
Extraction speed 2.2 X
Range quality 99.9 %
Test CRC B98AD326
Copy CRC B98AD326
Copy OK
No errors occurred
AccurateRip summary
Track 1 not present in database
Track 2 not present in database
Track 3 not present in database
Track 4 not present in database
Track 5 not present in database
Track 6 not present in database
None of the tracks are present in the AccurateRip database
End of status report
==== Log checksum 8049DA41B61679163B69894D930A91201D7BAE1A47879616523B487843908B08 ====



Показать сообщения:    

Текущее время: 07-Дек 00:52

Часовой пояс: UTC + 3


Вы не можете начинать темы
Вы не можете отвечать на сообщения
Вы не можете редактировать свои сообщения
Вы не можете удалять свои сообщения
Вы не можете голосовать в опросах
Вы не можете прикреплять файлы к сообщениям
Вы не можете скачивать файлы