(Classical) George Gershwin - Rhapsody in Blue - An American in Paris (Philharmonia Slavonica - Henry Adolph) - 1991, FLAC (tracks+.cue) lossless


 

[Цитировать]

George Gershwin - Rhapsody in Blue - An American in Paris (Philharmonia Slavonica - Henry Adolph)
Жанр: Classical
Страна-производитель диска: Czech
Год издания диска: 1991
Издатель (лейбл): Sound Carrier
Номер по каталогу: CD506.2203-2
Аудиокодек: FLAC
Тип рипа: tracks+.cue
Битрейт аудио: lossless
Продолжительность: 1:04:29.
Источник: собственный рип
Наличие сканов в содержимом раздачи: да
Треклист:
01. Rhapsody in Blue [0:13:18.25]
02. An American in Paris [0:18:32.55]
Concerto F-Dur für Klavier und Orchester
03. Allegro [0:14:13.33]
04. Adagio [0:11:11.10]
05. Allegro agitato [0:07:13.70]
Исполнители:
Philharmonia Slavonica - Henry Adolph

Лог создания рипа

Exact Audio Copy V1.0 beta 3 from 29. August 2011
Отчёт EAC об извлечении, выполненном 21. мая 2015, 22:33
George Gershwin / Rhapsody in Blue - An American in Paris
Дисковод: ASUS DRW-1814BLT Adapter: 4 ID: 0
Режим чтения : Достоверность
Использование точного потока : Да
Отключение кэша аудио : Да
Использование указателей C2 : Нет
Коррекция смещения при чтении : 6
Способность читать области Lead-in и Lead-out : Нет
Заполнение пропущенных сэмплов тишиной : Да
Удаление блоков с тишиной в начале и конце : Нет
При вычислениях CRC использовались нулевые сэмплы : Да
Интерфейс : Встроенный Win32-интерфейс для Win NT/2000
Обработка зазоров : Добавлено к предыдущему треку
Выходной формат : Пользовательский кодировщик
Выбранный битрейт : 128 kBit/s
Качество : Высокий
Добавление ID3-тега : Нет
Утилита сжатия : C:\Program Files\Exact Audio Copy\Flac\flac.exe
Дополнительные параметры : -V -8 -T "Genre=%genre%" -T "Artist=%artist%" -T "Title=%title%" -T "Album=%albumtitle%" -T "Date=%year%" -T "Tracknumber=%tracknr%" -T "Comment=EAC1.0b2 FLAC -8" %source%
TOC извлечённого CD
Трек | Старт | Длительность | Начальный сектор | Конечный сектор
---------------------------------------------------------------------
1 | 0:00.32 | 13:18.25 | 32 | 59906
2 | 13:18.57 | 18:32.55 | 59907 | 143361
3 | 31:51.37 | 14:13.33 | 143362 | 207369
4 | 46:04.70 | 11:11.10 | 207370 | 257704
5 | 57:16.05 | 7:13.70 | 257705 | 290249
Трек 1
Имя файла R:\Раздача 46\George Gershwin - 1991 - Rhapsody In Blue\01 Rhapsody in Blue.wav
Длина предзазора 0:00:02.32
Пиковый уровень 91.2 %
Скорость извлечения 7.0 X
Качество трека 100.0 %
CRC теста 06295B72
CRC копии 06295B72
Точное извлечение (достоверность 4) [B9EF0829] (AR v2)
Копирование... OK
Трек 2
Имя файла R:\Раздача 46\George Gershwin - 1991 - Rhapsody In Blue\02 An American in Paris.wav
Длина предзазора 0:00:05.62
Пиковый уровень 86.0 %
Скорость извлечения 9.0 X
Качество трека 100.0 %
CRC теста F2FBF652
CRC копии F2FBF652
Точное извлечение (достоверность 4) [0FC5FD09] (AR v2)
Копирование... OK
Трек 3
Имя файла R:\Раздача 46\George Gershwin - 1991 - Rhapsody In Blue\03 Allegro [Concerto F-Dur für Klavier und Orchester].wav
Длина предзазора 0:00:05.67
Пиковый уровень 79.3 %
Скорость извлечения 10.5 X
Качество трека 100.0 %
CRC теста 40A23D86
CRC копии 40A23D86
Точное извлечение (достоверность 4) [69205869] (AR v2)
Копирование... OK
Трек 4
Имя файла R:\Раздача 46\George Gershwin - 1991 - Rhapsody In Blue\04 Adagio [Concerto F-Dur für Klavier und Orchester].wav
Длина предзазора 0:00:03.35
Пиковый уровень 89.6 %
Скорость извлечения 11.4 X
Качество трека 100.0 %
CRC теста 4FFF8553
CRC копии 4FFF8553
Точное извлечение (достоверность 4) [A7FDE0F5] (AR v2)
Копирование... OK
Трек 5
Имя файла R:\Раздача 46\George Gershwin - 1991 - Rhapsody In Blue\05 Allegro agitato [Concerto F-Dur für Klavier und Orchester].wav
Пиковый уровень 95.3 %
Скорость извлечения 9.2 X
Качество трека 99.9 %
CRC теста AA08A4C7
CRC копии AA08A4C7
Точное извлечение (достоверность 4) [7A0588E0] (AR v2)
Копирование... OK
Все треки извлечены точно
Ошибок не произошло
Конец отчёта
==== Контрольная сумма отчёта E938D2FB607CDDEEB6E7604C542017DA834837367F250AD11BC660B222D86D1A ====

Содержание индексной карты (.CUE)

REM GENRE Classical
REM DATE 1991
REM DISCID 3F0F1E05
REM COMMENT "ExactAudioCopy v1.0b3"
CATALOG 0000000000000
PERFORMER "George Gershwin"
TITLE "Rhapsody in Blue - An American in Paris"
FILE "01 Rhapsody in Blue.wav" WAVE
TRACK 01 AUDIO
TITLE "Rhapsody in Blue"
PERFORMER "George Gershwin"
PREGAP 00:00:32
INDEX 01 00:00:00
TRACK 02 AUDIO
TITLE "An American in Paris"
PERFORMER "George Gershwin"
INDEX 00 13:12:38
FILE "02 An American in Paris.wav" WAVE
INDEX 01 00:00:00
TRACK 03 AUDIO
TITLE "Allegro [Concerto F-Dur fur Klavier und Orchester]"
PERFORMER "George Gershwin"
INDEX 00 18:26:63
FILE "03 Allegro [Concerto F-Dur fur Klavier und Orchester].wav" WAVE
INDEX 01 00:00:00
TRACK 04 AUDIO
TITLE "Adagio [Concerto F-Dur fur Klavier und Orchester]"
PERFORMER "George Gershwin"
INDEX 00 14:09:73
FILE "04 Adagio [Concerto F-Dur fur Klavier und Orchester].wav" WAVE
INDEX 01 00:00:00
FILE "05 Allegro agitato [Concerto F-Dur fur Klavier und Orchester].wav" WAVE
TRACK 05 AUDIO
TITLE "Allegro agitato [Concerto F-Dur fur Klavier und Orchester]"
PERFORMER "George Gershwin"
INDEX 01 00:00:00



Показать сообщения:    

Текущее время: 08-Дек 12:57

Часовой пояс: UTC + 3


Вы не можете начинать темы
Вы не можете отвечать на сообщения
Вы не можете редактировать свои сообщения
Вы не можете удалять свои сообщения
Вы не можете голосовать в опросах
Вы не можете прикреплять файлы к сообщениям
Вы не можете скачивать файлы