[TR24][OF] Prokofiev, Shostakovich: Cello Concertos / Прокофьев, Шостакович: Концерты для виолончели - Steven Isserlis, Frankfurt Radio Symphony Orchestra, Paavo Järvi (Jarvi) - 2015 (Classical)


Статистика раздачи [Обновить пиров]
Размер:  657 MB   |    Зарегистрирован:  8 месяцев 20 дней   |    Скачан:  1 раз

Полного источника не было: 27 дней

 
   
 
 
 

[Цитировать]

Sergei Prokofiev · Dmitri Shostakovich
Cello Concertos
Steven Isserlis
Frankfurt Radio Symphony Orchestra · Paavo Järvi
-Год издания: 2015 | Жанр: Classical | Издатель: Hyperion
Продолжительность: 01:05:18 | Сканы: Sleeve, Digital Booklet- -Steven Isserlis (cello), Frankfurt Radio Symphony Orchestra, Paavo Järvi (conductor)
Recorded in Frankfurt Radio Hall on 3-4 July 2013
(Shostakovich)
and Alte Oper Frankfurt on 12-13 December
(Prokofiev Concerto and March, live recording)
-Контейнер: FLAC (*.flac) | Тип рипа: tracks
Разрядность: 24bit / 48kHz | Количество каналов: 2.0
-Треклист
Sergei Prokofiev (1891-1953)
Cello Concerto in E minor, Op 58
01.Movement 1: Andante (5:33)
02. Movement 2: Allegro giusto (11:52)
03. Movement 3 Part 1: Tema: Allegro – Interludio: L'istesso tempo (2:07)
04. Movement 3 Part 2: Variation 1: L'istesso tempo (1:25)
05. Movement 3 Part 3: Variation 2: Vivace (1:27)
06. Movement 3 Part 4: Variation 3: Andantino tranquillo – Interludio II: Tempo I – (5:15)
07. Movement 3 Part 5: Variation 4: L'istesso tempo – (2:21)
08. Movement 3 Part 6: Reminiscenza: Meno mosso (2:13)
09. Movement 3 Part 7: Coda: Poco più sostenuto (4:14)
Dmitri Shostakovich (1906-1975)
Cello Concerto No 1 in E flat major, Op 107
10. Movement 1: Allegretto (6:26)
11. Movement 2: Moderato (10:33)
12. Movement 3: Cadenza – (5:34)
13. Movement 4: Allegro con moto (4:44)
Sergei Prokofiev, solo cello arranged by Gregor Piatigorsky (1903-1976)
Music for children, Op 65
14. No 10: March (1:35)

О релизе


A thrilling album from Steven Isserlis couples the ground-breaking Prokofiev Cello Concerto from the 1930s with Shostakovich's eruptive response to it written for Rostropovich in 1959. These seminal works mark the cello's coming of age, enveloping its trademark rhapsodic lyricism in a newly visceral passion.
Paavo Järvi makes his Hyperion debut, conducting an ebullient Frankfurt Radio Symphony Orchestra and providing the ideal foil to Isserlis's impassioned virtuosity.

ОтчётыДинамический диапазон

foobar2000 1.2.2 / Dynamic Range Meter 1.1.1
log date: 2015-05-24 14:36:15
--------------------------------------------------------------------------------
Analyzed: Steven Isserlis, Frankfurt Radio Symphony Orchestra, Paavo Järvi / Prokofiev & Shostakovich: Cello Concertos (1-13)
Steven Isserlis / Prokofiev & Shostakovich: Cello Concertos (14)
--------------------------------------------------------------------------------
DR Peak RMS Duration Track
--------------------------------------------------------------------------------
DR14 -2.05 dB -22.62 dB 5:33 ?-Prokofiev: Cello Concerto in E minor, Op 58 - Movement 1: Andante
DR16 -0.60 dB -22.55 dB 11:52 ?-Prokofiev: Cello Concerto in E minor, Op 58 - Movement 2: Allegro giusto
DR13 -4.61 dB -23.09 dB 2:07 ?-Prokofiev: Cello Concerto in E minor, Op 58 - Movement 3 Part 1: Tema: Allegro – Interludio: L'istesso tempo
DR12 -6.74 dB -23.72 dB 1:25 ?-Prokofiev: Cello Concerto in E minor, Op 58 - Movement 3 Part 2: Variation 1: L'istesso tempo
DR12 -7.32 dB -24.43 dB 1:27 ?-Prokofiev: Cello Concerto in E minor, Op 58 - Movement 3 Part 3: Variation 2: Vivace
DR17 -1.47 dB -24.95 dB 5:15 ?-Prokofiev: Cello Concerto in E minor, Op 58 - Movement 3 Part 4: Variation 3: Andantino tranquillo – Interludio II: Tempo I –
DR11 -8.71 dB -24.48 dB 2:21 ?-Prokofiev: Cello Concerto in E minor, Op 58 - Movement 3 Part 5: Variation 4: L'istesso tempo –
DR12 -6.15 dB -22.60 dB 2:13 ?-Prokofiev: Cello Concerto in E minor, Op 58 - Movement 3 Part 6: Reminiscenza: Meno mosso
DR16 -0.60 dB -22.12 dB 4:14 ?-Prokofiev: Cello Concerto in E minor, Op 58 - Movement 3 Part 7: Coda: Poco più sostenuto
DR17 -0.60 dB -21.49 dB 6:26 ?-Shostakovich: Cello Concerto No 1 in E flat major, Op 107 - Movement 1: Allegretto
DR16 -0.60 dB -25.16 dB 10:33 ?-Shostakovich: Cello Concerto No 1 in E flat major, Op 107 - Movement 2: Moderato
DR15 -8.04 dB -29.16 dB 5:34 ?-Shostakovich: Cello Concerto No 1 in E flat major, Op 107 - Movement 3: Cadenza –
DR14 -0.60 dB -18.41 dB 4:44 ?-Shostakovich: Cello Concerto No 1 in E flat major, Op 107 - Movement 4: Allegro con moto
DR12 -5.23 dB -23.41 dB 1:35 ?-Prokofiev/Piatigorsky: Music for children, Op 65 - No 10: March
--------------------------------------------------------------------------------
Number of tracks: 14
Official DR value: DR14
Samplerate: 48000 Hz
Channels: 2
Bits per sample: 24
Bitrate: 1303 kbps
Codec: FLAC
================================================================================

Скриншот спектра частот

Доп. информация

При скачивании, если необходимо, переименуйте папку, в которой будет находиться альбомБольшая просьба к скачавшим поддерживать раздачу! Помогайте другим, ведь вам тоже может понадобиться помощь!Не забываем говорить "Спасибо"!Комментарии приветствуются!
[teatrix.ru].t21255.torrent 
Торрент: Зарегистрирован [ 2016-03-20 00:49 ] · E64A9D8435A13AF32728A39E3BE2AE405AFB86E4

Скачать .torrent

Скачать

15 KB

Статус: проверено
Скачан: 1 раз
Размер: 657 MB
terms.php



Быстрый ответ

Имя:

      
Для отправки сообщений необходимо включить JavaScript
Показать сообщения:    

Текущее время: 10-Дек 00:24

Часовой пояс: UTC + 3


Вы можете начинать темы
Вы можете отвечать на сообщения
Вы не можете редактировать свои сообщения
Вы не можете удалять свои сообщения
Вы не можете голосовать в опросах
Вы не можете прикреплять файлы к сообщениям
Вы можете скачивать файлы