(Opera, Vocal) Ruth Ann Swenson - Con Amore (Italian Opera Arias for soprano by Bellini, Donizetti, Verdi, Puccini) - 2000, FLAC (tracks+.cue), lossless


 

[Цитировать]

Ruth Ann Swenson - Con Amore (Italian Opera Arias for soprano by Bellini, Donizetti, Verdi, Puccini)
Жанр: Opera, Vocal
Страна-производитель диска: CША
Год издания диска: 2000
Издатель (лейбл): EMI Classics
Дата записи: 1998
Аудиокодек: FLAC
Тип рипа: tracks+.cue
Битрейт аудио: lossless
Продолжительность: 63:38
Источник: релизер (Guillermo)
Треклист:
1. Giacomo Puccini - Turandot: "Signore, ascolta!" [02:49];
Giuseppe Verdi
2. La Traviata: "E strano!... e strano!..." [05:47];
3. La Traviata: "Sempre libera" [03:50];
Vincenzo Bellini
4. La sonnambula: "Ah!... Se una volta sola" [10:15];
5. La sonnambula: "Ah! non giunge" [03:38];
6. I Capuleti e i Montecchi: "Oh! Quante volte" [09:47];
7. Giacomo Puccini - La bohème: "Si. Mi chiamano Mimì" [05:14];
Giuseppe Verdi
8. Rigoletto: "Gualtier Maldè!" [00:47];
9. Rigoletto: "Caro nome che il mio cor" [06:06];
10. Giacomo Puccini - Manon Lescaut: "In quelle trine morbide" [02:52];
Gaetano Donizetti
11. L'elisir d'amore: "Prendi; prendi, per me sei libero" [03:35];
12. L'elisir d'amore: "Il mio rigor dimentica" [01:29];
13. Giuseppe Verdi - Otello: "Ave Maria" [04:57];
14. Giacomo Puccini - Gianni Schicchi: "O mio babbino caro" [02:32].
Исполнители:
Ruth Ann Swenson, soprano,
London Symphony Orchestra,
Julius Rudel, Conductor.
Recorded at EMI Abbey Road Studios, London, England, September 8, 1998 - September 9, 1998.

Лог создания рипа

Exact Audio Copy V1.0 beta 3 from 29. August 2011
EAC extraction logfile from 11. May 2015, 15:23
Ruth Ann Swenson / Con Amore
Used drive : HL-DT-STDVDRAM GH24NSC0 Adapter: 3 ID: 0
Read mode : Secure
Utilize accurate stream : Yes
Defeat audio cache : Yes
Make use of C2 pointers : No
Read offset correction : 6
Overread into Lead-In and Lead-Out : No
Fill up missing offset samples with silence : Yes
Delete leading and trailing silent blocks : No
Null samples used in CRC calculations : Yes
Used interface : Native Win32 interface for Win NT & 2000
Used output format : User Defined Encoder
Selected bitrate : 768 kBit/s
Quality : High
Add ID3 tag : No
Command line compressor : C:\Program Files (x86)\Exact Audio Copy\FLAC\FLAC.EXE
Additional command line options : -8 -V -T "ARTIST=%artist%" -T "TITLE=%title%" -T "ALBUM=%albumtitle%" -T "DATE=%year%" -T "TRACKNUMBER=%tracknr%" -T "GENRE=%genre%" -T "PERFORMER=%albuminterpret%" -T "COMPOSER=%composer%" %haslyrics%--tag-from-file=LYRICS="%lyricsfile%"%haslyrics% -T "ALBUMARTIST=%albumartist%" -T "DISCNUMBER=%cdnumber%" -T "TOTALDISCS=%totalcds%" -T "TOTALTRACKS=%numtracks%" -T "COMMENT=%comment%" %source% -o %dest%
TOC of the extracted CD
Track | Start | Length | Start sector | End sector
---------------------------------------------------------
1 | 0:00.00 | 2:49.67 | 0 | 12741
2 | 2:49.67 | 5:47.10 | 12742 | 38776
3 | 8:37.02 | 3:50.60 | 38777 | 56086
4 | 12:27.62 | 10:15.43 | 56087 | 102254
5 | 22:43.30 | 3:38.10 | 102255 | 118614
6 | 26:21.40 | 9:47.20 | 118615 | 162659
7 | 36:08.60 | 5:14.37 | 162660 | 186246
8 | 41:23.22 | 0:47.10 | 186247 | 189781
9 | 42:10.32 | 6:06.60 | 189782 | 217291
10 | 48:17.17 | 2:52.23 | 217292 | 230214
11 | 51:09.40 | 3:35.40 | 230215 | 246379
12 | 54:45.05 | 1:29.65 | 246380 | 253119
13 | 56:14.70 | 4:57.02 | 253120 | 275396
14 | 61:11.72 | 2:32.60 | 275397 | 286856
Track 1
Filename f:\Users\Guillermo\Desktop\EAC convertidos\01 Signore, ascolta! (Puccini- Turandot).wav
Pre-gap length 0:00:02.00
Peak level 70.7 %
Extraction speed 1.4 X
Track quality 100.0 %
Test CRC 15548B31
Copy CRC 15548B31
Copy OK
Track 2
Filename f:\Users\Guillermo\Desktop\EAC convertidos\02 E strano!... e strano!... (Verdi- La Traviata).wav
Pre-gap length 0:00:06.33
Peak level 53.4 %
Extraction speed 1.8 X
Track quality 100.0 %
Test CRC 7B4A12C2
Copy CRC 7B4A12C2
Copy OK
Track 3
Filename f:\Users\Guillermo\Desktop\EAC convertidos\03 Sempre libera (Verdi- La Traviata).wav
Peak level 67.3 %
Extraction speed 1.9 X
Track quality 100.0 %
Test CRC F3FD8272
Copy CRC F3FD8272
Copy OK
Track 4
Filename f:\Users\Guillermo\Desktop\EAC convertidos\04 Ah!... Se una volta sola (Bellini- La Sonnanbula).wav
Pre-gap length 0:00:05.89
Peak level 41.2 %
Extraction speed 2.4 X
Track quality 100.0 %
Test CRC F926C680
Copy CRC F926C680
Copy OK
Track 5
Filename f:\Users\Guillermo\Desktop\EAC convertidos\05 Ah! non giunge (Bellini- La Sonnanbula).wav
Peak level 88.5 %
Extraction speed 2.3 X
Track quality 100.0 %
Test CRC 5BC62276
Copy CRC 5BC62276
Copy OK
Track 6
Filename f:\Users\Guillermo\Desktop\EAC convertidos\06 Oh! Quante volte (Bellini- I Capuleti ed i Montecchi).wav
Pre-gap length 0:00:05.53
Peak level 34.9 %
Extraction speed 2.6 X
Track quality 99.9 %
Test CRC 200A032E
Copy CRC 200A032E
Copy OK
Track 7
Filename f:\Users\Guillermo\Desktop\EAC convertidos\07 Si. Mi chiamano Mimì (Puccini- La Bohème).wav
Pre-gap length 0:00:06.26
Peak level 90.9 %
Extraction speed 2.4 X
Track quality 99.9 %
Test CRC 64579B28
Copy CRC 64579B28
Copy OK
Track 8
Filename f:\Users\Guillermo\Desktop\EAC convertidos\08 Gualtier Maldè! (Verdi- Rigoletto).wav
Pre-gap length 0:00:05.22
Peak level 20.9 %
Extraction speed 1.0 X
Track quality 99.5 %
Test CRC 675CFFCB
Copy CRC 675CFFCB
Copy OK
Track 9
Filename f:\Users\Guillermo\Desktop\EAC convertidos\09 Caro nome che il mio cor (Verdi- Rigoletto).wav
Peak level 38.8 %
Extraction speed 2.7 X
Track quality 99.9 %
Test CRC 59951C45
Copy CRC 59951C45
Copy OK
Track 10
Filename f:\Users\Guillermo\Desktop\EAC convertidos\10 In quelle trine morbide (Puccini- Manon Lescaut).wav
Pre-gap length 0:00:04.93
Peak level 83.1 %
Extraction speed 2.7 X
Track quality 100.0 %
Test CRC 5D0C8662
Copy CRC 5D0C8662
Copy OK
Track 11
Filename f:\Users\Guillermo\Desktop\EAC convertidos\11 Prendi; prendi, per me sei libero (Donizetti- L'Elisir d'Amore).wav
Pre-gap length 0:00:05.57
Peak level 59.4 %
Extraction speed 2.9 X
Track quality 100.0 %
Test CRC 97569D47
Copy CRC 97569D47
Copy OK
Track 12
Filename f:\Users\Guillermo\Desktop\EAC convertidos\12 Il mio rigor dimentica (Donizetti- L'Elisir d'Amore).wav
Peak level 86.6 %
Extraction speed 1.7 X
Track quality 99.7 %
Test CRC 63C39C58
Copy CRC 63C39C58
Copy OK
Track 13
Filename f:\Users\Guillermo\Desktop\EAC convertidos\13 Ave Maria (Verdi- Otello).wav
Pre-gap length 0:00:04.84
Peak level 47.2 %
Extraction speed 3.2 X
Track quality 100.0 %
Test CRC 9741D820
Copy CRC 9741D820
Copy OK
Track 14
Filename f:\Users\Guillermo\Desktop\EAC convertidos\14 O mio babbino caro (Puccini- Gianni Schicchi).wav
Pre-gap length 0:00:04.66
Peak level 54.7 %
Extraction speed 2.9 X
Track quality 100.0 %
Test CRC 19B86110
Copy CRC 19B86110
Copy OK
No errors occurred
End of status report
==== Log checksum F9DDCB96D42CFAE347ABE2A54FCA81E42E1F322128C0F2948B659FD7E84DC363 ====

Содержание индексной карты (.CUE)

REM GENRE Opera
REM DATE 2000
REM DISCID D80EF00E
REM COMMENT "ExactAudioCopy v1.0b3"
FILE "01 Signore, ascolta! (Puccini- Turandot).wav" WAVE
TRACK 01 AUDIO
INDEX 01 00:00:00
TRACK 02 AUDIO
INDEX 00 02:43:42
FILE "02 E strano!... e strano!... (Verdi- La Traviata).wav" WAVE
INDEX 01 00:00:00
FILE "03 Sempre libera (Verdi- La Traviata).wav" WAVE
TRACK 03 AUDIO
INDEX 01 00:00:00
TRACK 04 AUDIO
INDEX 00 03:44:68
FILE "04 Ah!... Se una volta sola (Bellini- La Sonnanbula).wav" WAVE
INDEX 01 00:00:00
FILE "05 Ah! non giunge (Bellini- La Sonnanbula).wav" WAVE
TRACK 05 AUDIO
INDEX 01 00:00:00
TRACK 06 AUDIO
INDEX 00 03:32:45
FILE "06 Oh! Quante volte (Bellini- I Capuleti ed i Montecchi).wav" WAVE
INDEX 01 00:00:00
TRACK 07 AUDIO
INDEX 00 09:41:00
FILE "07 Si. Mi chiamano Mimм (Puccini- La Bohиme).wav" WAVE
INDEX 01 00:00:00
TRACK 08 AUDIO
INDEX 00 05:09:20
FILE "08 Gualtier Maldи! (Verdi- Rigoletto).wav" WAVE
INDEX 01 00:00:00
FILE "09 Caro nome che il mio cor (Verdi- Rigoletto).wav" WAVE
TRACK 09 AUDIO
INDEX 01 00:00:00
TRACK 10 AUDIO
INDEX 00 06:01:65
FILE "10 In quelle trine morbide (Puccini- Manon Lescaut).wav" WAVE
INDEX 01 00:00:00
TRACK 11 AUDIO
INDEX 00 02:46:55
FILE "11 Prendi; prendi, per me sei libero (Donizetti- L'Elisir d'Amore).wav" WAVE
INDEX 01 00:00:00
FILE "12 Il mio rigor dimentica (Donizetti- L'Elisir d'Amore).wav" WAVE
TRACK 12 AUDIO
INDEX 01 00:00:00
TRACK 13 AUDIO
INDEX 00 01:25:02
FILE "13 Ave Maria (Verdi- Otello).wav" WAVE
INDEX 01 00:00:00
TRACK 14 AUDIO
INDEX 00 04:52:27
FILE "14 O mio babbino caro (Puccini- Gianni Schicchi).wav" WAVE
INDEX 01 00:00:00



Показать сообщения:    

Текущее время: 22-Янв 04:41

Часовой пояс: UTC + 3


Вы не можете начинать темы
Вы не можете отвечать на сообщения
Вы не можете редактировать свои сообщения
Вы не можете удалять свои сообщения
Вы не можете голосовать в опросах
Вы не можете прикреплять файлы к сообщениям
Вы не можете скачивать файлы