(Orchestral Music) Mahler - The Symphonies • Das Lied von der Erde [10CD-set] (Kubelik, Klemperer, Boult, Reiner, Walter, Mitropoulus, Rosbaud, Stokowski) - 2011, APE (image+.cue) lossless


 

[Цитировать]

Gustav Mahler - The Symphonies • Das Lied von der Erde
Жанр: Orchestral Music
Страна-производитель диска: Eu
Год издания диска: 2011
Издатель (лейбл): Documents
Номер по каталогу: 233087
Дата записи: 1947-1958
Аудиокодек: APE
Тип рипа: image+.cue
Битрейт аудио: lossless
Источник: собственный рип
Наличие сканов в содержимом раздачи: да
Треклист / Исполнители:

CD 1: SYMPHONY NO. 1 IN D MAJOR 'TITAN' • SYMPHONY NO. 10

SYMPHONY NO. 1 IN D MAJOR 'TITAN'
1. I. Langsam, schleppend. Im Anfang sehr gemächlich 17'46
2. II. Kräftig beweqt, doch nicht zu schnell 7'11
3. III. Feierlich und qemessen, ohne zu schieppen 10'39
4. IV. Stürmisch bewegt 18'59
Wiener Philharmoniker
Rafael Kubelik, conductor
1954
SYMPHONY NO. 10
5. I. Andante. Adagio 28'42
Orchester der Wiener Staatsoper
Hermann Scherchen, conductor
1952
Total Time: 78'22

CD 2: SYMPHONY NO. 2 IN C MINOR "RESURRECTION"

1. I. Allegro maestoso 9'17
2. Schnell 8'42
3. II. Andante moderato 9'32
4. III. In ruhig fliessender Bewegung 10'35
5. IV. "Urlicht": Sehr feierlich, aber schlicht 4'05
6. V. Im Tempo des Scherzos. Wild herausfahrend 8'38
7. Maestoso 7'34
8. Sehr langsam und gedehnt - 7'05
9. Etwas bewegter 6'23
Jo Vincent, soprano
Kathleen Ferrier, contralta
Amsterdam Toonkunstkoor
Concertgebouw Orchestra
Otto Klemperer, conductor
1957 (live)
Total Time: 72'06

CD 3: SYMPHONY NO. 3 IN D MINOR

1. I. Kräftig. Entschieden 37'16
2. II. Tempo di Menuetto. Sehr mäBig 8'14
3. III. Comodo. Scherzando. Ohne Hast 15'45
4. IV. Sehr langsam. Misterioso. Durchaus ppp 9'57
5. V. Lustig im Tempo und keck im Ausdruck 4'49
Kathleen Ferrier, contralto
BBC Symphony Orchestra and Choir
Adrian Boult, conductor
1947 (live)
Total Time: 72'05

CD 4: SYMPHONY NO. 3 IN D MINOR (CONT.) • SYMPHONY NO. 4 IN G MAJOR

SYMPHONY NO. 3 IN D MINOR (CONT.)
1. VI. Langsam. Ruhevoll. Empfunden 25'50
Kathleen Ferrier, contralto
BBC Symphony Orchestra
Adrian Boult, conductor
1947 (live)
SYMPHONY NO. 4 IN G MAJOR
1. I. Bedächtig, nicht eilen 15'55
2. II. In gemächlicher Bewegung, ohne Hast 8'53
3. III. Ruhevoll 18'58
4. IV. Sehr behaglich 9'40
Lisa Della Casa, soprano
Chicago Symphony Orchestra
Fritz Reiner, conductor
1958
Total Time: 79'20

CD 5: SYMPHONY NO. 5 IN C SHARP MINOR

1. I. Trauermarsch. In gemessenem Schritt. Streng. Wie ein Kondukt 11'37
2. II. Stürmisch bewegt. Mit gröBter Vehemenz 12'32
3. III. Scherzo: Kräftig, nicht zu schnell 15'05
4. IV. Adagietto: Sehr langsam 7'37
5. V. Rondo-Finale: Allegro. Allegro giocoso. Frisch 13'52
New York Philhormonic
Bruno Walter, conductor
1947
Total Time: 60'45

CD 6: SYMPHONY NO. 6 IN A MINOR

1. I. Allegro energico, rna non troppo. Heftig, aber markig 17'52
2. II. Andante moderato 15'01
3. III. Scherzo: Wuchtig 11'24
4. IV. Finale: Sostenuto. Allegro moderato. Allegro energico 23'36
New York Philharmonic
Dimitri Mitropoulos
1955 (live)
Total Time: 72'55

CD 7: SYMPHONY NO. 7 IN E MINOR

1. I. Langsam. Allegro 20'18
2. II. Nachtmusik I: Allegro moderato 16'23
3. III. Scherzo: Schatten haft 9'53
4. IV. Nachtmusik II: Andante amoroso 11'41
5. V. Rondo-Finale 18'44
Sinfonieorchester des Südwestfunks Baden-Baden
Hans Rosbaud
1957 (live)
Total Time: 77'01

CD 8: SYMPHONY NO. 8 IN E FLAT MAJOR ("SYMPHONY OF A THOUSAND")

1. I. Hymnus: "Veni, creator spiritus" 22'27
2. II. Closing scene from Goethe's "Faust II" 55'32
Frances Yeend, Uta Graf, Camilla Williams, sopranos
Martha Lipton, Louise Bernhardt, altos
Eugene Conley, tenor
Cattos Alexander, baritone
George London, bass
The Westminster Choir, Schola Cantorum of New York,
Public School Boys' Chorus
New York Philharmonic Symphony Orchestra
Leopold Stokowski, conductor
1950 (live)
Total Time: 78'00

CD 9: SYMPHONY NO. 9 IN D MAJOR

1. I. Andante comodo 23'12
2. II. Im Tempo eines gemächliehen Ländlers. Etwas täppisch und sehr derb 16'23
3. III. Rondo-Burleske: Allegro assai. Sehr trotzig 13'29
4. IV. Adagio: Sehr langsam und noeh zurückhaltend 21'38
Sinfonieorchester des Südwestfunks Baden-Baden
Hans Rosbaud
1954 (live)
Total Time: 74'44

CD 10: DAS LIED VON DER ERDE (THE SONG OF THE EARTH)

1. I. Das Trinklied vom Jammer der Erde. Allegro pesante 8'36
2. II. Der Einsame im Herbst. Etwas schleichend. Ermüdet 9'13
3. III. Von der Jugend. Behaglich heiter 2'59
4. IV. Von der Sehönheit. Commodo Dolcissirno 6'45
5. V. Der Trunkene im Frühling. Allegro. Keek, aber nicht zu schnell 4'23
6. VI. Der Abschied. Schwer 28'18
Kathleen Ferrier, alto
Julius Patzak, tenor
Wiener Philharmaniker
Bruno Walter[/b, conductor
1952
Total Time: 60'17

Лог создания рипа

CD1

Exact Audio Copy V1.0 beta 3 from 29. August 2011
EAC extraction logfile from 21. May 2015, 17:06
Mahler / Symphony No. 1, Kubelik • No. 10, Scherchen CD1
Used drive : TS8XDVDSTRANSCEND Adapter: 1 ID: 1
Read mode : Secure
Utilize accurate stream : Yes
Defeat audio cache : Yes
Make use of C2 pointers : No
Read offset correction : 6
Overread into Lead-In and Lead-Out : No
Fill up missing offset samples with silence : Yes
Delete leading and trailing silent blocks : No
Null samples used in CRC calculations : Yes
Used interface : Native Win32 interface for Win NT & 2000
Used output format : Monkey's Audio Lossless Encoder
Selected bitrate : High Lossless Compression
Quality : High
Add ID3 tag : Yes
Command line compressor : C:\Program Files (x86)\Exact Audio Copy\MAC\MAC.exe
TOC of the extracted CD
Track | Start | Length | Start sector | End sector
---------------------------------------------------------
1 | 0:00.00 | 12:46.09 | 0 | 57458
2 | 12:46.09 | 7:11.29 | 57459 | 89812
3 | 19:57.38 | 10:39.13 | 89813 | 137750
4 | 30:36.51 | 19:03.44 | 137751 | 223519
5 | 49:40.20 | 28:42.09 | 223520 | 352678
Range status and errors
Selected range
Filename D:\EAC\Mahler - Symphony No. 1, Kubelik • No. 10, Scherchen CD1.wav
Peak level 100.0 %
Extraction speed 2.1 X
Range quality 100.0 %
Test CRC 7D5B6BAB
Copy CRC 7D5B6BAB
Copy OK
No errors occurred
AccurateRip summary
Track 1 cannot be verified as accurate (confidence 3) [9838E582], AccurateRip returned [FD4768E5] (AR v2)
Track 2 cannot be verified as accurate (confidence 3) [B31B74E5], AccurateRip returned [689439BA] (AR v2)
Track 3 cannot be verified as accurate (confidence 3) [CD51DBCF], AccurateRip returned [A4A0D663] (AR v2)
Track 4 cannot be verified as accurate (confidence 3) [94D2B966], AccurateRip returned [453D9E43] (AR v2)
Track 5 cannot be verified as accurate (confidence 3) [D0EB2071], AccurateRip returned [DE26C6B8] (AR v2)
No tracks could be verified as accurate
You may have a different pressing from the one(s) in the database
End of status report
---- CUETools DB Plugin V2.1.3
[CTDB TOCID: imH4TWm2_3JNCXqRx6di0lMGUfU-] disk not present in database, Submit result: unrecognized or virtual drive
==== Log checksum E370205F49FA889E53B4F241189DB6A7EFEF843C8F40277793A820CAF8B181E3 ====

CD2

Exact Audio Copy V1.0 beta 3 from 29. August 2011
EAC extraction logfile from 21. May 2015, 16:57
Mahler / Symphony No.2, Klemperer CD2
Used drive : TSSTcorpCDDVDW SE-208AB Adapter: 1 ID: 0
Read mode : Secure
Utilize accurate stream : Yes
Defeat audio cache : Yes
Make use of C2 pointers : No
Read offset correction : 6
Overread into Lead-In and Lead-Out : No
Fill up missing offset samples with silence : Yes
Delete leading and trailing silent blocks : No
Null samples used in CRC calculations : Yes
Used interface : Native Win32 interface for Win NT & 2000
Used output format : Monkey's Audio Lossless Encoder
Selected bitrate : High Lossless Compression
Quality : High
Add ID3 tag : Yes
Command line compressor : C:\Program Files (x86)\Exact Audio Copy\MAC\MAC.exe
TOC of the extracted CD
Track | Start | Length | Start sector | End sector
---------------------------------------------------------
1 | 0:00.00 | 9:17.49 | 0 | 41823
2 | 9:17.49 | 8:42.44 | 41824 | 81017
3 | 18:00.18 | 9:32.70 | 81018 | 123987
4 | 27:33.13 | 10:35.32 | 123988 | 171644
5 | 38:08.45 | 4:05.27 | 171645 | 190046
6 | 42:13.72 | 8:38.09 | 190047 | 228905
7 | 50:52.06 | 7:34.65 | 228906 | 263020
8 | 58:26.71 | 7:05.47 | 263021 | 294942
9 | 65:32.43 | 6:33.44 | 294943 | 324461
Range status and errors
Selected range
Filename D:\EAC\Mahler - Symphony No.2, Klemperer CD2.wav
Peak level 99.9 %
Extraction speed 2.0 X
Range quality 100.0 %
Test CRC F339D1CB
Copy CRC F339D1CB
Copy OK
No errors occurred
AccurateRip summary
Track 1 cannot be verified as accurate (confidence 3) [80BF869F], AccurateRip returned [86AE9915] (AR v2)
Track 2 cannot be verified as accurate (confidence 3) [31E07A11], AccurateRip returned [4F9F48E6] (AR v2)
Track 3 cannot be verified as accurate (confidence 3) [FAE3166C], AccurateRip returned [2ACCE19F] (AR v2)
Track 4 cannot be verified as accurate (confidence 3) [9B0737BB], AccurateRip returned [FC110767] (AR v2)
Track 5 cannot be verified as accurate (confidence 3) [DF9B79FF], AccurateRip returned [19CA3430] (AR v2)
Track 6 cannot be verified as accurate (confidence 3) [8D7D4C98], AccurateRip returned [9F489FC5] (AR v2)
Track 7 cannot be verified as accurate (confidence 3) [EEFC94D5], AccurateRip returned [9751646C] (AR v2)
Track 8 cannot be verified as accurate (confidence 3) [7F6A0EC1], AccurateRip returned [084BCA34] (AR v2)
Track 9 cannot be verified as accurate (confidence 3) [810FEF6A], AccurateRip returned [F2476E9B] (AR v2)
No tracks could be verified as accurate
You may have a different pressing from the one(s) in the database
End of status report
---- CUETools DB Plugin V2.1.3
[CTDB TOCID: p8cUp8W7qAvRGO30uLDe5Nlxnm8-] found, Submit result: p8cUp8W7qAvRGO30uLDe5Nlxnm8- has been confirmed
[e7424b6c] (1/1) Accurately ripped
==== Log checksum 64B1956C8CC68DD5857D6F150A5E2D7199333E6CCD8761AE626EE3DBF426D4AB ====

CD3

Exact Audio Copy V1.0 beta 3 from 29. August 2011
EAC extraction logfile from 21. May 2015, 17:21
Mahler / Symphony No. 3, Boult CD3
Used drive : HL-DT-STDVDRAM GH22NS50 Adapter: 0 ID: 2
Read mode : Secure
Utilize accurate stream : Yes
Defeat audio cache : Yes
Make use of C2 pointers : No
Read offset correction : 667
Overread into Lead-In and Lead-Out : No
Fill up missing offset samples with silence : Yes
Delete leading and trailing silent blocks : No
Null samples used in CRC calculations : Yes
Used interface : Native Win32 interface for Win NT & 2000
Used output format : Monkey's Audio Lossless Encoder
Selected bitrate : High Lossless Compression
Quality : High
Add ID3 tag : Yes
Command line compressor : C:\Program Files (x86)\Exact Audio Copy\MAC\MAC.exe
TOC of the extracted CD
Track | Start | Length | Start sector | End sector
---------------------------------------------------------
1 | 0:00.00 | 33:18.63 | 0 | 149912
2 | 33:18.63 | 8:14.66 | 149913 | 187028
3 | 41:33.54 | 15:45.51 | 187029 | 257954
4 | 57:19.30 | 9:57.24 | 257955 | 302753
5 | 67:16.54 | 4:49.17 | 302754 | 324445
Range status and errors
Selected range
Filename D:\EAC\Mahler - Symphony No. 3, Boult CD3.wav
Peak level 99.9 %
Extraction speed 1.9 X
Range quality 99.9 %
Test CRC 3162FC0D
Copy CRC 3162FC0D
Copy OK
No errors occurred
AccurateRip summary
Track 1 cannot be verified as accurate (confidence 3) [64C0A8C9], AccurateRip returned [357811B9] (AR v2)
Track 2 cannot be verified as accurate (confidence 3) [EBFB3F90], AccurateRip returned [611F4E1A] (AR v2)
Track 3 cannot be verified as accurate (confidence 3) [F0D2B6D8], AccurateRip returned [9851BDCF] (AR v2)
Track 4 cannot be verified as accurate (confidence 3) [A946F030], AccurateRip returned [C3157AF6] (AR v2)
Track 5 cannot be verified as accurate (confidence 3) [035ADD4B], AccurateRip returned [253582DE] (AR v2)
No tracks could be verified as accurate
You may have a different pressing from the one(s) in the database
End of status report
---- CUETools DB Plugin V2.1.3
[CTDB TOCID: lrQHuRsILDVas7Llfwn6XTZkyAY-] disk not present in database, Submit result: lrQHuRsILDVas7Llfwn6XTZkyAY- has been uploaded
==== Log checksum 9C4234EACB0C5F631C56FD9CD48BFF3063F340B2C55BA7E7FF48D3EB1021F4A9 ====

CD4

Exact Audio Copy V1.0 beta 3 from 29. August 2011
EAC extraction logfile from 21. May 2015, 18:16
Mahler / Symphony No. 3, Boult • No. 4, Reiner CD4
Used drive : TSSTcorpCDDVDW SE-208AB Adapter: 1 ID: 0
Read mode : Secure
Utilize accurate stream : Yes
Defeat audio cache : Yes
Make use of C2 pointers : No
Read offset correction : 6
Overread into Lead-In and Lead-Out : No
Fill up missing offset samples with silence : Yes
Delete leading and trailing silent blocks : No
Null samples used in CRC calculations : Yes
Used interface : Native Win32 interface for Win NT & 2000
Used output format : Monkey's Audio Lossless Encoder
Selected bitrate : High Lossless Compression
Quality : High
Add ID3 tag : Yes
Command line compressor : C:\Program Files (x86)\Exact Audio Copy\MAC\MAC.exe
TOC of the extracted CD
Track | Start | Length | Start sector | End sector
---------------------------------------------------------
1 | 0:00.00 | 25:52.47 | 0 | 116446
2 | 25:52.47 | 15:55.11 | 116447 | 188082
3 | 41:47.58 | 8:53.69 | 188083 | 228126
4 | 50:41.52 | 18:58.62 | 228127 | 313538
5 | 69:40.39 | 9:40.14 | 313539 | 357052
Range status and errors
Selected range
Filename D:\EAC\Mahler - Symphony No. 3, Boult • No. 4, Reiner CD4.wav
Peak level 100.0 %
Extraction speed 2.3 X
Range quality 100.0 %
Test CRC 8ADA7DDD
Copy CRC 8ADA7DDD
Copy OK
No errors occurred
AccurateRip summary
Track 1 cannot be verified as accurate (confidence 3) [E046510A], AccurateRip returned [1E5D6C1E] (AR v2)
Track 2 cannot be verified as accurate (confidence 3) [EC4530AC], AccurateRip returned [A36219BB] (AR v2)
Track 3 cannot be verified as accurate (confidence 3) [18996F5E], AccurateRip returned [0BF413C1] (AR v2)
Track 4 cannot be verified as accurate (confidence 3) [F3C09DC5], AccurateRip returned [C1EC4A05] (AR v2)
Track 5 cannot be verified as accurate (confidence 3) [F3D3D2D5], AccurateRip returned [1AF2E076] (AR v2)
No tracks could be verified as accurate
You may have a different pressing from the one(s) in the database
End of status report
---- CUETools DB Plugin V2.1.3
[CTDB TOCID: 8aMD9sUgmHLovLSorMlF6EWBC.g-] disk not present in database, Submit result: 8aMD9sUgmHLovLSorMlF6EWBC.g- has been uploaded
==== Log checksum C35ED603E1CBABD901ED8D7BB02587228D985675FBA3F6D007AB04D6E6EC3E36 ====

CD5

Exact Audio Copy V1.0 beta 3 from 29. August 2011
EAC extraction logfile from 21. May 2015, 18:04
Mahler / Symphony No.5, Walter CD5
Used drive : TS8XDVDSTRANSCEND Adapter: 1 ID: 1
Read mode : Secure
Utilize accurate stream : Yes
Defeat audio cache : Yes
Make use of C2 pointers : No
Read offset correction : 6
Overread into Lead-In and Lead-Out : No
Fill up missing offset samples with silence : Yes
Delete leading and trailing silent blocks : No
Null samples used in CRC calculations : Yes
Used interface : Native Win32 interface for Win NT & 2000
Used output format : Monkey's Audio Lossless Encoder
Selected bitrate : High Lossless Compression
Quality : High
Add ID3 tag : Yes
Command line compressor : C:\Program Files (x86)\Exact Audio Copy\MAC\MAC.exe
TOC of the extracted CD
Track | Start | Length | Start sector | End sector
---------------------------------------------------------
1 | 0:00.00 | 11:37.14 | 0 | 52288
2 | 11:37.14 | 12:32.14 | 52289 | 108702
3 | 24:09.28 | 15:05.72 | 108703 | 176649
4 | 39:15.25 | 7:37.07 | 176650 | 210931
5 | 46:52.32 | 13:52.59 | 210932 | 273390
Range status and errors
Selected range
Filename D:\EAC\Mahler - Symphony No.5, Walter CD5.wav
Peak level 100.0 %
Extraction speed 1.9 X
Range quality 100.0 %
Test CRC 7C0638CF
Copy CRC 7C0638CF
Copy OK
No errors occurred
AccurateRip summary
Track 1 cannot be verified as accurate (confidence 3) [598054CD], AccurateRip returned [A821E171] (AR v2)
Track 2 cannot be verified as accurate (confidence 3) [AF5CF7EA], AccurateRip returned [2D56AD94] (AR v2)
Track 3 cannot be verified as accurate (confidence 3) [C24B7FB4], AccurateRip returned [DA393BCD] (AR v2)
Track 4 cannot be verified as accurate (confidence 3) [3F97DD89], AccurateRip returned [1781A5E7] (AR v2)
Track 5 cannot be verified as accurate (confidence 3) [DA56123D], AccurateRip returned [55C2E81F] (AR v2)
No tracks could be verified as accurate
You may have a different pressing from the one(s) in the database
End of status report
---- CUETools DB Plugin V2.1.3
[CTDB TOCID: uyy2QT1JNqGv0XAoTIjzZD0ivVI-] found, Submit result: unrecognized or virtual drive
[baf770f5] (1/1) Accurately ripped
==== Log checksum 2C1E1DB5AFE1052DAA544207D7F38C27C1EB054049035A829DAB44E7185C853A ====

CD6

Exact Audio Copy V1.0 beta 3 from 29. August 2011
EAC extraction logfile from 21. May 2015, 18:47
Mahler / Symphony No. 6, Mitropoulus CD6
Used drive : HL-DT-STDVDRAM GH22NS50 Adapter: 0 ID: 2
Read mode : Secure
Utilize accurate stream : Yes
Defeat audio cache : Yes
Make use of C2 pointers : No
Read offset correction : 667
Overread into Lead-In and Lead-Out : No
Fill up missing offset samples with silence : Yes
Delete leading and trailing silent blocks : No
Null samples used in CRC calculations : Yes
Used interface : Native Win32 interface for Win NT & 2000
Used output format : Monkey's Audio Lossless Encoder
Selected bitrate : High Lossless Compression
Quality : High
Add ID3 tag : Yes
Command line compressor : C:\Program Files (x86)\Exact Audio Copy\MAC\MAC.exe
TOC of the extracted CD
Track | Start | Length | Start sector | End sector
---------------------------------------------------------
1 | 0:00.00 | 17:52.25 | 0 | 80424
2 | 17:52.25 | 15:01.57 | 80425 | 148056
3 | 32:54.07 | 11:24.55 | 148057 | 199411
4 | 44:18.62 | 28:36.43 | 199412 | 328154
Range status and errors
Selected range
Filename D:\EAC\Mahler - Symphony No. 6, Mitropoulus CD6.wav
Peak level 100.0 %
Extraction speed 1.9 X
Range quality 99.9 %
Test CRC 27C1D1C5
Copy CRC 27C1D1C5
Copy OK
No errors occurred
AccurateRip summary
Track 1 cannot be verified as accurate (confidence 3) [9906B19F], AccurateRip returned [8D14AAB5] (AR v2)
Track 2 cannot be verified as accurate (confidence 3) [C7F0B87C], AccurateRip returned [717871CE] (AR v2)
Track 3 cannot be verified as accurate (confidence 3) [44AF8E3D], AccurateRip returned [E7A62DA6] (AR v2)
Track 4 cannot be verified as accurate (confidence 3) [78485FFE], AccurateRip returned [D33ACF59] (AR v2)
No tracks could be verified as accurate
You may have a different pressing from the one(s) in the database
End of status report
---- CUETools DB Plugin V2.1.3
[CTDB TOCID: ppzd.zgl6sHzI7f9xhN.WRSBlBo-] disk not present in database, Submit result: ppzd.zgl6sHzI7f9xhN.WRSBlBo- has been uploaded
==== Log checksum A593953B3004C916A3CE5518735A9465155ADF8A0E6283C1E4D512300D81551A ====

CD7

Exact Audio Copy V1.0 beta 3 from 29. August 2011
EAC extraction logfile from 21. May 2015, 19:09
Mahler / Symphony No. 7, Rosbaud CD7
Used drive : TS8XDVDSTRANSCEND Adapter: 1 ID: 1
Read mode : Secure
Utilize accurate stream : Yes
Defeat audio cache : Yes
Make use of C2 pointers : No
Read offset correction : 6
Overread into Lead-In and Lead-Out : No
Fill up missing offset samples with silence : Yes
Delete leading and trailing silent blocks : No
Null samples used in CRC calculations : Yes
Used interface : Native Win32 interface for Win NT & 2000
Used output format : Monkey's Audio Lossless Encoder
Selected bitrate : High Lossless Compression
Quality : High
Add ID3 tag : Yes
Command line compressor : C:\Program Files (x86)\Exact Audio Copy\MAC\MAC.exe
TOC of the extracted CD
Track | Start | Length | Start sector | End sector
---------------------------------------------------------
1 | 0:00.00 | 20:18.43 | 0 | 91392
2 | 20:18.43 | 16:23.22 | 91393 | 165139
3 | 36:41.65 | 9:53.38 | 165140 | 209652
4 | 46:35.28 | 11:41.74 | 209653 | 262301
5 | 58:17.27 | 18:44.16 | 262302 | 346617
Range status and errors
Selected range
Filename D:\EAC\Mahler - Symphony No. 7, Rosbaud CD7.wav
Peak level 99.9 %
Extraction speed 2.1 X
Range quality 100.0 %
Test CRC 049F1E6D
Copy CRC 049F1E6D
Copy OK
No errors occurred
AccurateRip summary
Track 1 cannot be verified as accurate (confidence 3) [F55846A8], AccurateRip returned [B4D807F2] (AR v2)
Track 2 cannot be verified as accurate (confidence 3) [852BB94A], AccurateRip returned [FC432224] (AR v2)
Track 3 cannot be verified as accurate (confidence 3) [CB494E43], AccurateRip returned [99A3234F] (AR v2)
Track 4 cannot be verified as accurate (confidence 3) [91914575], AccurateRip returned [2982D3BC] (AR v2)
Track 5 cannot be verified as accurate (confidence 3) [346F13BE], AccurateRip returned [BAA29D07] (AR v2)
No tracks could be verified as accurate
You may have a different pressing from the one(s) in the database
End of status report
---- CUETools DB Plugin V2.1.3
[CTDB TOCID: eIz3OT3Y5sVI.UgcxrjgE_ESFNI-] disk not present in database, Submit result: unrecognized or virtual drive
==== Log checksum 5198103C2A018F5E964AA21305EFE0B6D9CA5C5D6A9D74F263EE82FA46CB8EEF ====

CD8

Exact Audio Copy V1.0 beta 3 from 29. August 2011
EAC extraction logfile from 21. May 2015, 19:31
Mahler / Symphony No. 8, Stokowski CD8
Used drive : TSSTcorpCDDVDW SE-208AB Adapter: 1 ID: 0
Read mode : Secure
Utilize accurate stream : Yes
Defeat audio cache : Yes
Make use of C2 pointers : No
Read offset correction : 6
Overread into Lead-In and Lead-Out : No
Fill up missing offset samples with silence : Yes
Delete leading and trailing silent blocks : No
Null samples used in CRC calculations : Yes
Used interface : Native Win32 interface for Win NT & 2000
Used output format : Monkey's Audio Lossless Encoder
Selected bitrate : High Lossless Compression
Quality : High
Add ID3 tag : Yes
Command line compressor : C:\Program Files (x86)\Exact Audio Copy\MAC\MAC.exe
TOC of the extracted CD
Track | Start | Length | Start sector | End sector
---------------------------------------------------------
1 | 0:00.00 | 22:27.50 | 0 | 101074
2 | 22:27.50 | 55:32.63 | 101075 | 351037
Range status and errors
Selected range
Filename D:\EAC\Mahler - Symphony No. 8, Stokowski CD8.wav
Peak level 100.0 %
Extraction speed 2.2 X
Range quality 100.0 %
Test CRC 641434C1
Copy CRC 641434C1
Copy OK
No errors occurred
AccurateRip summary
Track 1 cannot be verified as accurate (confidence 3) [0105A883], AccurateRip returned [FD0FBF90] (AR v2)
Track 2 cannot be verified as accurate (confidence 3) [3860DC91], AccurateRip returned [010F142A] (AR v2)
No tracks could be verified as accurate
You may have a different pressing from the one(s) in the database
End of status report
---- CUETools DB Plugin V2.1.3
[CTDB TOCID: u6ZU2sjp2rOFUVYJUfoZMkWl1Z0-] disk not present in database, Submit result: u6ZU2sjp2rOFUVYJUfoZMkWl1Z0- has been uploaded
==== Log checksum A9BFB963F97D321940A9E61E7B0BD18C370C0626326840B7220FFDD00EDFDCB1 ====

CD9

Exact Audio Copy V1.0 beta 3 from 29. August 2011
EAC extraction logfile from 21. May 2015, 20:09
Mahler / Symphony No. 9, Rosbaud CD9
Used drive : HL-DT-STDVDRAM GH22NS50 Adapter: 0 ID: 2
Read mode : Secure
Utilize accurate stream : Yes
Defeat audio cache : Yes
Make use of C2 pointers : No
Read offset correction : 667
Overread into Lead-In and Lead-Out : No
Fill up missing offset samples with silence : Yes
Delete leading and trailing silent blocks : No
Null samples used in CRC calculations : Yes
Used interface : Native Win32 interface for Win NT & 2000
Used output format : Monkey's Audio Lossless Encoder
Selected bitrate : High Lossless Compression
Quality : High
Add ID3 tag : Yes
Command line compressor : C:\Program Files (x86)\Exact Audio Copy\MAC\MAC.exe
TOC of the extracted CD
Track | Start | Length | Start sector | End sector
---------------------------------------------------------
1 | 0:00.00 | 23:12.50 | 0 | 104449
2 | 23:12.50 | 16:23.24 | 104450 | 178198
3 | 39:35.74 | 13:29.15 | 178199 | 238888
4 | 53:05.14 | 21:38.72 | 238889 | 336310
Range status and errors
Selected range
Filename D:\EAC\Mahler - Symphony No. 9, Rosbaud CD9.wav
Peak level 100.0 %
Extraction speed 2.0 X
Range quality 100.0 %
Test CRC 542CE54B
Copy CRC 542CE54B
Copy OK
No errors occurred
AccurateRip summary
Track 1 cannot be verified as accurate (confidence 3) [90F39794], AccurateRip returned [735B700D] (AR v2)
Track 2 cannot be verified as accurate (confidence 3) [01E13040], AccurateRip returned [BE28DCCB] (AR v2)
Track 3 cannot be verified as accurate (confidence 3) [EFFBFCFB], AccurateRip returned [4503424C] (AR v2)
Track 4 cannot be verified as accurate (confidence 3) [6905C444], AccurateRip returned [07C86063] (AR v2)
No tracks could be verified as accurate
You may have a different pressing from the one(s) in the database
End of status report
---- CUETools DB Plugin V2.1.3
[CTDB TOCID: vMir2uhAS67bM.HTVVwTV7WYC2A-] disk not present in database, Submit result: vMir2uhAS67bM.HTVVwTV7WYC2A- has been uploaded
==== Log checksum 504A47C415F4C74E17AA0C77E17F52C7AB7DC66369A036950A57369FCD20779B ====

CD10

Exact Audio Copy V1.0 beta 3 from 29. August 2011
EAC extraction logfile from 21. May 2015, 20:09
Mahler / Das Lied von der Erde, Walter CD10
Used drive : TS8XDVDSTRANSCEND Adapter: 1 ID: 1
Read mode : Secure
Utilize accurate stream : Yes
Defeat audio cache : Yes
Make use of C2 pointers : No
Read offset correction : 6
Overread into Lead-In and Lead-Out : No
Fill up missing offset samples with silence : Yes
Delete leading and trailing silent blocks : No
Null samples used in CRC calculations : Yes
Used interface : Native Win32 interface for Win NT & 2000
Used output format : Monkey's Audio Lossless Encoder
Selected bitrate : High Lossless Compression
Quality : High
Add ID3 tag : Yes
Command line compressor : C:\Program Files (x86)\Exact Audio Copy\MAC\MAC.exe
TOC of the extracted CD
Track | Start | Length | Start sector | End sector
---------------------------------------------------------
1 | 0:00.00 | 8:36.40 | 0 | 38739
2 | 8:36.40 | 9:13.66 | 38740 | 80280
3 | 17:50.31 | 2:59.62 | 80281 | 93767
4 | 20:50.18 | 6:45.05 | 93768 | 124147
5 | 27:35.23 | 4:23.29 | 124148 | 143901
6 | 31:58.52 | 28:18.54 | 143902 | 271305
Range status and errors
Selected range
Filename D:\EAC\Mahler - Das Lied von der Erde, Walter CD10.wav
Peak level 100.0 %
Extraction speed 1.9 X
Range quality 100.0 %
Test CRC 3E987E8F
Copy CRC 3E987E8F
Copy OK
No errors occurred
AccurateRip summary
Track 1 cannot be verified as accurate (confidence 3) [9DCA8D4D], AccurateRip returned [7A58083F] (AR v2)
Track 2 cannot be verified as accurate (confidence 3) [B0B2A5F2], AccurateRip returned [D16D67AD] (AR v2)
Track 3 cannot be verified as accurate (confidence 3) [B3405709], AccurateRip returned [E8B3FFDE] (AR v2)
Track 4 cannot be verified as accurate (confidence 3) [70B738B4], AccurateRip returned [1C8C0C18] (AR v2)
Track 5 cannot be verified as accurate (confidence 3) [E96260C3], AccurateRip returned [1EB1AAB6] (AR v2)
Track 6 cannot be verified as accurate (confidence 3) [C0031E28], AccurateRip returned [C89111BB] (AR v2)
No tracks could be verified as accurate
You may have a different pressing from the one(s) in the database
End of status report
---- CUETools DB Plugin V2.1.3
[CTDB TOCID: M7m4krr9AZKDiZHzy.9DbPEnyPk-] disk not present in database, Submit result: unrecognized or virtual drive
==== Log checksum D9FD7A244FF02E49C6A144365DE187670F45CF33C0D0ABDB507D416E5C87C3EB ====

Содержание индексной карты (.CUE)

CD1

REM GENRE Classical
REM DATE 1954
REM DISCID 54125E05
REM COMMENT "ExactAudioCopy v1.0b3"
PERFORMER "Mahler"
TITLE "Symphony No. 1, Kubelik • No. 10, Scherchen CD1"
FILE "Mahler - Symphony No. 1, Kubelik • No. 10, Scherchen CD1.ape" WAVE
TRACK 01 AUDIO
TITLE "Symphony No. 1 in D - I Langsam, schleppend. Im Anfang sehr gemächlich"
PERFORMER "Mahler"
ISRC DEU241006727
INDEX 01 00:00:00
TRACK 02 AUDIO
TITLE "Symphony No. 1 in D - II Kräftig bewegt, doch nicht zu schnell"
PERFORMER "Mahler"
ISRC DEU241006727
INDEX 01 12:46:09
TRACK 03 AUDIO
TITLE "Symphony No. 1 in D - III Feierlich und gemessen, ohne zu schleppen"
PERFORMER "Mahler"
ISRC DEU241006729
INDEX 01 19:57:38
TRACK 04 AUDIO
TITLE "Symphony No. 1 in D - IV Stürmisch bewegt"
PERFORMER "Mahler"
ISRC DEU241006730
INDEX 01 30:36:51
TRACK 05 AUDIO
TITLE "Symphony No. 10 - I Andante. Adagio."
PERFORMER "Mahler"
ISRC DEU241006731
INDEX 00 49:36:20
INDEX 01 49:40:20

CD2

REM GENRE Classical
REM DATE 1951
REM DISCID 7C10E609
REM COMMENT "ExactAudioCopy v1.0b3"
PERFORMER "Mahler"
TITLE "Symphony No.2, Klemperer CD2"
FILE "Mahler - Symphony No.2, Klemperer CD2.ape" WAVE
TRACK 01 AUDIO
TITLE "I. Allegro maestoso"
PERFORMER "Mahler"
ISRC DEU241006732
INDEX 01 00:00:00
TRACK 02 AUDIO
TITLE "Schnell"
PERFORMER "Mahler"
ISRC DEU241006733
INDEX 01 09:17:49
TRACK 03 AUDIO
TITLE "II. Andante moderato"
PERFORMER "Mahler"
ISRC DEU241006734
INDEX 01 18:00:18
TRACK 04 AUDIO
TITLE "III. In ruhig flieBender Bewegung"
PERFORMER "Mahler"
ISRC DEU241006735
INDEX 01 27:33:13
TRACK 05 AUDIO
TITLE "IV. 'Urlicht': Sehr feierlich, aberschlicht"
PERFORMER "Mahler"
ISRC DEU241006736
INDEX 01 38:08:45
TRACK 06 AUDIO
TITLE "V. Im Tempo des Scherzos"
PERFORMER "Mahler"
ISRC DEU241006737
INDEX 01 42:13:72
TRACK 07 AUDIO
TITLE "Maestoso"
PERFORMER "Mahler"
ISRC DEU241006738
INDEX 01 50:52:06
TRACK 08 AUDIO
TITLE "Sehr langsam und gedehnt"
PERFORMER "Mahler"
ISRC DEU241006738
INDEX 01 58:26:71
TRACK 09 AUDIO
TITLE "Etwas bewegter"
PERFORMER "Mahler"
ISRC DEU241006740
INDEX 01 65:32:43

CD3

REM GENRE Classical
REM DATE 1947
REM DISCID 3310E505
REM COMMENT "ExactAudioCopy v1.0b3"
PERFORMER "Mahler"
TITLE "Symphony No. 3, Boult CD3"
FILE "Mahler - Symphony No. 3, Boult CD3.ape" WAVE
TRACK 01 AUDIO
TITLE "Symphony No. 3 in d - I Kräftig. Entschieden"
PERFORMER "Mahler"
ISRC DEU241006741
INDEX 01 00:00:00
TRACK 02 AUDIO
TITLE "Symphony No. 3 in d - II Tempo di Menuetto. Sehr mäßig"
PERFORMER "Mahler"
ISRC DEU241006742
INDEX 01 33:18:63
TRACK 03 AUDIO
TITLE "Symphony No. 3 in d - III Comodo. Scherzando. Ohne Hast"
PERFORMER "Mahler"
ISRC DEU241006743
INDEX 01 41:33:54
TRACK 04 AUDIO
TITLE "Symphony No. 3 in d - IV Sehr langsam. Misterioso. Durchaus ppp"
PERFORMER "Mahler"
ISRC DEU241006744
INDEX 01 57:19:30
TRACK 05 AUDIO
TITLE "Symphony No. 3 in d - V Lustig im Tempo und keck im Ausdruck"
PERFORMER "Mahler"
ISRC DEU241006745
INDEX 01 67:16:54

CD4

REM GENRE Classical
REM DATE 1958
REM DISCID 3A129805
REM COMMENT "ExactAudioCopy v1.0b3"
PERFORMER "Mahler"
TITLE "Symphony No. 3, Boult • No. 4, Reiner CD4"
FILE "Mahler - Symphony No. 3, Boult • No. 4, Reiner CD4.ape" WAVE
TRACK 01 AUDIO
TITLE "Symphony No. 3 in d - VI Langsam. Ruhevoll. Empfunden"
PERFORMER "Mahler"
ISRC DEU241006746
INDEX 01 00:00:00
TRACK 02 AUDIO
TITLE "Symphony No. 4 in G - I Bedächtig, nicht eilen"
PERFORMER "Mahler"
ISRC DEU241006747
INDEX 00 25:50:47
INDEX 01 25:52:47
TRACK 03 AUDIO
TITLE "Symphony No. 4 in G - II In gemächlicher Bewegung, ohne Hast"
PERFORMER "Mahler"
ISRC DEU241006748
INDEX 01 41:47:58
TRACK 04 AUDIO
TITLE "Symphony No. 4 in G - III Ruhevoll"
PERFORMER "Mahler"
ISRC DEU241006749
INDEX 01 50:41:52
TRACK 05 AUDIO
TITLE "Symphony No. 4 in G - IV Sehr behaglich"
PERFORMER "Mahler"
ISRC DEU241006749
INDEX 01 69:40:39

CD5

REM GENRE Symphony
REM DATE 1947
REM DISCID 450E3D05
REM COMMENT "ExactAudioCopy v1.0b3"
PERFORMER "Mahler"
TITLE "Symphony No.5, Walter CD5"
FILE "Mahler - Symphony No.5, Walter CD5.ape" WAVE
TRACK 01 AUDIO
TITLE "Symphony No.5 in C-sharp minor - Part 1: 1. Trauermarsch. In gemessenem Schri..."
PERFORMER "Mahler"
ISRC DEU241006751
INDEX 01 00:00:00
TRACK 02 AUDIO
TITLE "Symphony No.5 in C-sharp minor - Part 1: 2. Sturmisch bewegt. Mit grosster Ve..."
PERFORMER "Mahler"
ISRC DEU241006752
INDEX 01 11:37:14
TRACK 03 AUDIO
TITLE "Symphony No.5 in C-sharp minor - Part 2: 3. Scherzo. Kraftig, nicht zu schnell"
PERFORMER "Mahler"
ISRC DEU241006752
INDEX 01 24:09:28
TRACK 04 AUDIO
TITLE "Symphony No.5 in C-sharp minor - Part 3: 4. Adagietto. Sehr langsam"
PERFORMER "Mahler"
ISRC DEU241006754
INDEX 01 39:15:25
TRACK 05 AUDIO
TITLE "Symphony No.5 in C-sharp minor - Part 3: 5. Rondo - Finale. Allegro"
PERFORMER "Mahler"
ISRC DEU241006755
INDEX 01 46:52:32

CD6

REM GENRE Classical
REM DATE 1955
REM DISCID 33111704
REM COMMENT "ExactAudioCopy v1.0b3"
PERFORMER "Mahler"
TITLE "Symphony No. 6, Mitropoulus CD6"
FILE "Mahler - Symphony No. 6, Mitropoulus CD6.ape" WAVE
TRACK 01 AUDIO
TITLE "I. Allegro energico, ma non troppo. Heftig aber markig"
PERFORMER "Mahler"
ISRC DEU241006756
INDEX 01 00:00:00
TRACK 02 AUDIO
TITLE "II. Andante moderato"
PERFORMER "Mahler"
ISRC DEU241006757
INDEX 01 17:52:25
TRACK 03 AUDIO
TITLE "III. Scherzo: Wuchtig"
PERFORMER "Mahler"
ISRC DEU241006758
INDEX 01 32:54:07
TRACK 04 AUDIO
TITLE "IV. Finale: Sostenuto, Allegro moderato. Allegro energico"
PERFORMER "Mahler"
ISRC DEU241006759
INDEX 01 44:18:62

CD7

REM GENRE Symphony
REM DATE 1957
REM DISCID 40120D05
REM COMMENT "ExactAudioCopy v1.0b3"
PERFORMER "Mahler"
TITLE "Symphony No. 7, Rosbaud CD7"
FILE "Mahler - Symphony No. 7, Rosbaud CD7.ape" WAVE
TRACK 01 AUDIO
TITLE "Symphony No. 7 in e - I Langsam - Allegro risolut, ma non troppo"
PERFORMER "Mahler"
ISRC DEU241006760
INDEX 01 00:00:00
TRACK 02 AUDIO
TITLE "Symphony No. 7 in e - II Nachtmusik I: Allegro moderato"
PERFORMER "Mahler"
ISRC DEU241006761
INDEX 01 20:18:43
TRACK 03 AUDIO
TITLE "Symphony No. 7 in e - III Scherzo. Schattenhaft"
PERFORMER "Mahler"
ISRC DEU241006762
INDEX 01 36:41:65
TRACK 04 AUDIO
TITLE "Symphony No. 7 in e - IV Nachtmusik II: Andante amoroso"
PERFORMER "Mahler"
ISRC DEU241006762
INDEX 01 46:35:28
TRACK 05 AUDIO
TITLE "Sym. No.7 e. 5.Mov. Rond-Finale"
PERFORMER "Mahler"
ISRC DEU241006764
INDEX 01 58:17:27

CD8

REM GENRE Symphony
REM DATE 1950
REM DISCID 13124802
REM COMMENT "ExactAudioCopy v1.0b3"
PERFORMER "Mahler"
TITLE "Symphony No. 8, Stokowski CD8"
FILE "Mahler - Symphony No. 8, Stokowski CD8.ape" WAVE
TRACK 01 AUDIO
TITLE "Symphony No. 8 in Eb - I Hymnus: Veni, creator spiritus"
PERFORMER "Mahler"
ISRC DEU241006765
INDEX 01 00:00:00
TRACK 02 AUDIO
TITLE "Symphony No. 8 in Eb - II Closing scene from Goethe's Faust"
PERFORMER "Mahler"
ISRC DEU241006766
INDEX 01 22:27:50

CD9

REM GENRE classical
REM DATE 1954
REM DISCID 39118404
REM COMMENT "ExactAudioCopy v1.0b3"
PERFORMER "Mahler"
TITLE "Symphony No. 9, Rosbaud CD9"
FILE "Mahler - Symphony No. 9, Rosbaud CD9.ape" WAVE
TRACK 01 AUDIO
TITLE "Andante comodo"
PERFORMER "Mahler"
ISRC DEU241006767
INDEX 01 00:00:00
TRACK 02 AUDIO
TITLE "Im Tempo eines gemachlichen Landlers"
PERFORMER "Mahler"
ISRC DEU241006768
INDEX 01 23:12:50
TRACK 03 AUDIO
TITLE "Rondo-burlesque"
PERFORMER "Mahler"
ISRC DEU241006769
INDEX 01 39:35:74
TRACK 04 AUDIO
TITLE "Adagio"
PERFORMER "Mahler"
ISRC DEU241006770
INDEX 01 53:05:14

CD10

REM GENRE Vocal
REM DATE 1952
REM DISCID 430E2106
REM COMMENT "ExactAudioCopy v1.0b3"
PERFORMER "Mahler"
TITLE "Das Lied von der Erde, Walter CD10"
FILE "Mahler - Das Lied von der Erde, Walter CD10.ape" WAVE
TRACK 01 AUDIO
TITLE "Das Lied von der Erde - I Das Trinklied vom Jammer der Erde. Allegro pesante"
PERFORMER "Mahler"
ISRC DEU241006771
INDEX 01 00:00:00
TRACK 02 AUDIO
TITLE "Das Lied von der Erde - II Der Einsame im Herbst. Ermüdet"
PERFORMER "Mahler"
ISRC DEU241006772
INDEX 01 08:36:40
TRACK 03 AUDIO
TITLE "Das Lied von der Erde - III Von der Jugend. Behaglich heiter"
PERFORMER "Mahler"
ISRC DEU241006773
INDEX 01 17:50:31
TRACK 04 AUDIO
TITLE "Das Lied von der Erde - IV Von der Schönheit. Commodo Dolcissimo"
PERFORMER "Mahler"
ISRC DEU241006774
INDEX 01 20:50:18
TRACK 05 AUDIO
TITLE "Das Lied von der Erde - V Der Trunkene im Frühling. Allegro. Keck, aber nicht..."
PERFORMER "Mahler"
ISRC DEU241006775
INDEX 01 27:35:23
TRACK 06 AUDIO
TITLE "Das Lied von der Erde - VI Der Abschied. Schwer"
PERFORMER "Mahler"
ISRC DEU241006776
INDEX 01 31:58:52



Показать сообщения:    

Текущее время: 04-Дек 09:09

Часовой пояс: UTC + 3


Вы не можете начинать темы
Вы не можете отвечать на сообщения
Вы не можете редактировать свои сообщения
Вы не можете удалять свои сообщения
Вы не можете голосовать в опросах
Вы не можете прикреплять файлы к сообщениям
Вы не можете скачивать файлы