[TR24][OF] Plácido (Placido) Domingo - Domingo at the MET (Anniversary Edition) (Verdi, Puccini, Giordano, Leoncavallo, Ponchielli, Mascagni, Wolf-Ferrari, Чайковский, Offenbach, Gounod, Gluck, Saint-Saens, Bizet) - 2014 (Classical / Opera)


Статистика раздачи [Обновить пиров]
Размер:  3.42 GB   |    Зарегистрирован:  8 месяцев 20 дней   |    Скачан:  0 раз

Полного источника не было: Никогда

 
   
 
 
 

[Цитировать]

Plácido Domingo
Domingo at the MET
-Год издания: 2014 | Жанр: Classical / Opera
Издатель: Sony Classical | The Metropolitan Opera
Продолжительность: 03:52:18 | Наличие сканов: Sleeve- -Контейнер: FLAC (*.flac) | Тип рипа: tracks
Разрядность: 24bit / 88.2kHz | Количество каналов: 2.0-Plácido Domingo, tenor
Metropolitan Opera Orchestra
-Треклист
CD 1 [01:17:28]
01.Simon Boccanegra, Act II: "O inferno! ... Sento avvampar nell'anima" (5:00)
02. Rigoletto, Act III: "La donna è mobile" (2:21)
03. Otello, Act IV: "Niun mi tema" (6:29)
04. Don Carlo, Act I: "Fontainebleau! Foresta immensa e solitaria! ... Io la vidi" (3:57)
05. Luisa Miller, Act II: "Oh! fede negar potessi ... Quando le sere al placido" (5:42)
06. La Traviata, Act II: "Lunge da lei ... De' miei bollenti spiriti ... O mio rimorso, infamia!" (6:19)
07. La Traviata, Act II: "Di Provenza il mar, il suol" (4:18)
08. Un Ballo in Maschera, Act I: "Di' tu se fedele" (3:36)
09. Un Ballo in Maschera, Act III: "Forse la soglia attinse ... Ma se m'è forza perderti" (5:58)
10. Rigoletto, Act I: "Questa o quella" (1:44)
11. Stiffelio, Act I: "Vidi dovunque gemere ... Ah v'appare in fronte scritto" (5:44)
12. Aida, Act I: "Se quel guerrier io fossi! ... Celeste Aida" (4:17)
13. La Forza del Destino, Act III: "La vita è inferno all'infelice ... O tu che in seno agli angeli" (9:21)
14. Simon Boccanegra, Act I: "Plebe! Patrizi! Popolo dalle feroce storia" (5:30)
15. Il Trovatore, Act III: "Ah! Si, ben mio, coll'essere ... L'onda de' suoni mistici ... Di quella pira" (7:12)
CD 2 [01:16:58]
01. Turandot, Act III: "Nessun dorma" (3:16)
02. Andrea Chénier, Act IV: "Cittadino, men duol - Come un bel dì di maggio" (4:46)
03. Pagliacci, Act I: "Recitar! ... Vesti la giubba" (4:09)
04. La Fanciulla del West, Act III: "Risparmiate lo scherno ... Ch'ella mi creda" (4:19)
05. La Gioconda, Act II: "Cielo e mar" (5:26)
06. La Bohème, Act III: "Marcello. Finalmente!" (5:29)
07. Cavalleria Rusticana: "Compar Alfio ... Mamma, quel vino è generoso" (6:37)
08. Manon Lescaut, Act I: "Cortese damigella ... Donna non vidi mai" (6:05)
09. Norma, Act I: "Svanir le voci ... Meco all'altar di Venere ... Me protegge, me difende" (8:47)
10. Sly, Act I: "Un orso in musoliera" (4:39)
11. Francesa da Rimini, Act III: "Inghirlandata di violette m'appariste ieri" (5:57)
12. Il Tabarro: "Hai ben ragione! Meglio non pensare" (2:46)
13. Fedora, Act II: "La fante mi svela l'immondo ritrovo ... Vedi io piango" (8:30)
14. Tosca, Act I: "Dammi i colori! ... Recondita armonia" (3:05)
15. Tosca, Act III: "E lucevan le stelle" (3:07)
CD 3 [01:17:52]
01. Les Contes d'Hoffmann, Prologue: "Va pour Kleinzach! ... Il ètait une fois à la cour d'Eisenach" (5:30)
02. Faust, Act II: "Quel trouble inconnu me pénètre? ... Salut! demeure chaste et pure" (6:20)
03. Iphigénie en Tauride, Act II: "Quel silence effrayant! - Dieux, qui me poursuivez" (5:05)
04. Samson et Dalila, Act III: "Vois ma misère, hélas" (8:45)
05. Carmen, Act II: "La fleur que tu m'avais jetée" (3:46)
06. Werther, Act III: "Pourquoi me réveiller" (3:00)
07. Les Troyens, Act III: "Inutiles regrets! ... Ah! Quand viendra l'instant" (6:54)
08. The Queen of Spades, Act I: "Prosti, prelestnoe sozdanye" (2:43)
09. The First Emperor, Act I: "The Shadow That Haunts Me Wherever I Go" (4:56)
10. Parsifal, Act II: "Amfortas! Die Wunde!" (8:43)
11. Die Walküre, Act I: "Ein Schwert verhieß mir der Vater" (5:48)
12. Lohengrin, Act III: "In fernem Land ... Mir schwankt der Boden!" (16:23)

О релизе

-Sony Classical is proud to announce the release of Domingo at the MET, a 3-CD anniversary set with many previously unreleased live recordings celebrating Plácido Domingo’s 45th season at the Metropolitan Opera.
"There have been many legendary tenors who have performed at the Met over its 130-year history. From Jean de Reszke in the late 1800s to Enrico Caruso in the early 1900s, from Corelli, Vickers, and McCracken in the 1960s to Luciano Pavarotti, who rose to prominence in the 1970s, the Met has been home to a remarkable array of tenors. But no other tenor in Met history has enjoyed a career of such astounding breadth, longevity, and musical and dramatic excellence, as Plácido Domingo.
Forty-five years ago, Plácido appeared on the Met stage for the first time, stepping in to replace an ailing Franco Corelli as Maurizio in Adriana Lecouvreur and announcing his arrival as a major new talent. Today, he’s still performing on our stage, having triumphed last season in the baritone role of Germont in La Traviata, and this year reprising his acclaimed turn as Neptune in the Met’s Baroque pastiche The Enchanted Island—one of his astounding 143 roles, of which he’s sung 48 at the Met. I can’t think of any other artist in the history of opera who would be capable of accomplishing such a feat.
Somehow, in the midst of learning new operas and performing, Plácido also finds time to run the Los Angeles Opera and to conduct all over the world. For 45 years at the Met, Plácido has been one of opera’s greatest forces. We’re proud and thankful for all of the invaluable contributions he has made to the life of our company, and we congratulate him on this stunning new collection." --Peter Gelb
Plácido Domingo, tenor
Metropolitan Opera Orchestra
Conductor: James Levine, Yannick Nézet-Séguin, Giuseppe Patané, Giuseppe Sinopoli, Fausto Cleva, Carlo Felice Cillario, Kurt Adler, Leonard Slatkin, Nello Santo, Marco Armiliato, Roberto Abbado, George Schick, Martin Rich, Louis Langrée, Jean Morel, Vladimir Jurowski, Tan Dun

ОтчётыДинамический диапазон

CD 1
foobar2000 1.2.2 / Dynamic Range Meter 1.1.1
log date: 2015-05-24 21:07:43
--------------------------------------------------------------------------------
Analyzed: Plácido Domingo, Metropolitan Opera Orchestra, Carlo Felice Cillario / Plácido Domingo at the MET (1)
Plácido Domingo, Metropolitan Opera Orchestra, Fausto Cleva / Plácido Domingo at the MET (2-3)
Plácido Domingo, Metropolitan Opera Orchestra, James Levine / Plácido Domingo at the MET (4-14)
Plácido Domingo, Metropolitan Opera Orchestra, Yannick Nézet-Séguin / Plácido Domingo at the MET (15)
--------------------------------------------------------------------------------
DR Peak RMS Duration Track
--------------------------------------------------------------------------------
DR13 -1.52 dB -19.20 dB 7:12 ?-Il Trovatore, Act III: "Ah! Si, ben mio, coll'essere ... L'onda de' suoni mistici ... Di quella pira"
DR13 -1.57 dB -18.41 dB 3:36 ?-Un Ballo in Maschera, Act I: "Di' tu se fedele"
DR11 -3.66 dB -20.38 dB 5:58 ?-Un Ballo in Maschera, Act III: "Forse la soglia attinse ... Ma se m'è forza perderti"
DR13 -2.03 dB -21.91 dB 5:00 ?-Simon Boccanegra, Act II: "O inferno! ... Sento avvampar nell'anima"
DR13 -2.67 dB -20.86 dB 2:21 ?-Rigoletto, Act III: "La donna è mobile"
DR16 -2.50 dB -26.15 dB 6:29 ?-Otello, Act IV: "Niun mi tema"
DR13 -6.67 dB -24.36 dB 3:57 ?-Don Carlo, Act I: "Fontainebleau! Foresta immensa e solitaria! ... Io la vidi"
DR13 -1.96 dB -22.48 dB 5:42 ?-Luisa Miller, Act II: "Oh! fede negar potessi ... Quando le sere al placido"
DR13 -4.43 dB -22.52 dB 6:19 ?-La Traviata, Act II: "Lunge da lei ... De' miei bollenti spiriti ... O mio rimorso, infamia!"
DR13 -3.05 dB -20.78 dB 1:44 ?-Rigoletto, Act I: "Questa o quella"
DR14 -0.57 dB -19.42 dB 5:44 ?-Stiffelio, Act I: "Vidi dovunque gemere ... Ah v'appare in fronte scritto"
DR14 -0.52 dB -20.42 dB 4:17 ?-Aida, Act I: "Se quel guerrier io fossi! ... Celeste Aida"
DR15 -2.98 dB -23.87 dB 9:21 ?-La Forza del Destino, Act III: "La vita è inferno all'infelice ... O tu che in seno agli angeli"
DR13 -3.00 dB -21.48 dB 5:30 ?-Simon Boccanegra, Act I: "Plebe! Patrizi! Popolo dalle feroce storia"
DR14 -3.15 dB -24.59 dB 4:18 ?-La Traviata, Act II: "Di Provenza il mar, il suol"
--------------------------------------------------------------------------------
Number of tracks: 15
Official DR value: DR13
Samplerate: 88200 Hz
Channels: 2
Bits per sample: 24
Bitrate: 2016 kbps
Codec: FLAC
================================================================================
CD 2
foobar2000 1.2.2 / Dynamic Range Meter 1.1.1
log date: 2015-05-24 21:10:03
--------------------------------------------------------------------------------
Analyzed: Plácido Domingo, Metropolitan Opera Orchestra, George Schick / Plácido Domingo at the MET (1)
Plácido Domingo, Metropolitan Opera Orchestra, Giuseppe Patané / Plácido Domingo at the MET (2)
Plácido Domingo, Metropolitan Opera Orchestra, Giuseppe Sinopoli / Plácido Domingo at the MET (3)
Plácido Domingo, Metropolitan Opera Orchestra, James Levine / Plácido Domingo at the MET (4-10)
Plácido Domingo, Metropolitan Opera Orchestra, Kurt Adler / Plácido Domingo at the MET (11)
Plácido Domingo, Metropolitan Opera Orchestra, Leonard Slatkin / Plácido Domingo at the MET (12)
Plácido Domingo, Metropolitan Opera Orchestra, Marco Armiliato / Plácido Domingo at the MET (13)
Plácido Domingo, Metropolitan Opera Orchestra, Nello Santo / Plácido Domingo at the MET (14)
Plácido Domingo, Metropolitan Opera Orchestra, Roberto Abbado / Plácido Domingo at the MET (15)
--------------------------------------------------------------------------------
DR Peak RMS Duration Track
--------------------------------------------------------------------------------
DR11 -3.95 dB -20.69 dB 3:05 ?-Tosca, Act I: "Dammi i colori! ... Recondita armonia"
DR13 -5.68 dB -25.14 dB 5:26 ?-La Gioconda, Act II: "Cielo e mar"
DR12 -8.05 dB -25.30 dB 3:07 ?-Tosca, Act III: "E lucevan le stelle"
DR12 -6.46 dB -24.37 dB 4:46 ?-Andrea Chénier, Act IV: "Cittadino, men duol - Come un bel dì di maggio"
DR13 -5.81 dB -24.78 dB 4:09 ?-Pagliacci, Act I: "Recitar! ... Vesti la giubba"
DR14 -4.95 dB -24.36 dB 6:37 ?-Cavalleria Rusticana: "Compar Alfio ... Mamma, quel vino è generoso"
DR14 -4.44 dB -23.67 dB 6:05 ?-Manon Lescaut, Act I: "Cortese damigella ... Donna non vidi mai"
DR13 -4.67 dB -23.95 dB 8:47 ?-Norma, Act I: "Svanir le voci ... Meco all'altar di Venere ... Me protegge, me difende"
DR12 -6.71 dB -23.56 dB 5:57 ?-Francesa da Rimini, Act III: "Inghirlandata di violette m'appariste ieri"
DR13 -4.33 dB -22.91 dB 2:46 ?-Il Tabarro: "Hai ben ragione! Meglio non pensare"
DR12 -0.95 dB -19.47 dB 3:16 ?-Turandot, Act III: "Nessun dorma"
DR13 -4.91 dB -25.77 dB 4:19 ?-La Fanciulla del West, Act III: "Risparmiate lo scherno ... Ch'ella mi creda"
DR15 -5.42 dB -26.13 dB 4:39 ?-Sly, Act I: "Un orso in musoliera"
DR12 -8.91 dB -25.14 dB 5:29 ?-La Bohème, Act III: "Marcello. Finalmente!"
DR15 -0.61 dB -22.49 dB 8:30 ?-Fedora, Act II: "La fante mi svela l'immondo ritrovo ... Vedi io piango"
--------------------------------------------------------------------------------
Number of tracks: 15
Official DR value: DR13
Samplerate: 88200 Hz
Channels: 2
Bits per sample: 24
Bitrate: 2043 kbps
Codec: FLAC
================================================================================
CD 3
foobar2000 1.2.2 / Dynamic Range Meter 1.1.1
log date: 2015-05-24 21:12:57
--------------------------------------------------------------------------------
Analyzed: Plácido Domingo, Metropolitan Opera Orchestra, James Levine / Plácido Domingo at the MET (1-7)
Plácido Domingo, Metropolitan Opera Orchestra, Jean Morel / Plácido Domingo at the MET (8)
Plácido Domingo, Metropolitan Opera Orchestra, Louis Langrée / Plácido Domingo at the MET (9)
Plácido Domingo, Metropolitan Opera Orchestra, Martin Rich / Plácido Domingo at the MET (10)
Plácido Domingo, Metropolitan Opera Orchestra, Tan Dun / Plácido Domingo at the MET (11)
Plácido Domingo, Metropolitan Opera Orchestra, Vladimir Jurowski / Plácido Domingo at the MET (12)
--------------------------------------------------------------------------------
DR Peak RMS Duration Track
--------------------------------------------------------------------------------
DR14 -2.71 dB -22.49 dB 5:30 ?-Les Contes d'Hoffmann, Prologue: "Va pour Kleinzach! ... Il ètait une fois à la cour d'Eisenach"
DR15 -2.12 dB -24.41 dB 8:45 ?-Samson et Dalila, Act III: "Vois ma misère, hélas"
DR12 -4.60 dB -22.36 dB 3:00 ?-Werther, Act III: "Pourquoi me réveiller"
DR15 -0.98 dB -20.55 dB 6:54 ?-Les Troyens, Act III: "Inutiles regrets! ... Ah! Quand viendra l'instant"
DR13 -3.46 dB -20.77 dB 8:43 ?-Parsifal, Act II: "Amfortas! Die Wunde!"
DR12 -5.16 dB -22.68 dB 5:48 ?-Die Walküre, Act I: "Ein Schwert verhieß mir der Vater"
DR12 -2.24 dB -21.00 dB 16:23 ?-Lohengrin, Act III: "In fernem Land ... Mir schwankt der Boden!"
DR12 -4.38 dB -21.18 dB 3:46 ?-Carmen, Act II: "La fleur que tu m'avais jetée"
DR13 -3.27 dB -22.21 dB 5:05 ?-Iphigénie en Tauride, Act II: "Quel silence effrayant! - Dieux, qui me poursuivez"
DR10 -7.07 dB -22.61 dB 6:20 ?-Faust, Act II: "Quel trouble inconnu me pénètre? ... Salut! demeure chaste et pure"
DR14 -2.68 dB -23.84 dB 4:56 ?-The First Emperor, Act I: "The Shadow That Haunts Me Wherever I Go"
DR12 -3.07 dB -21.26 dB 2:43 ?-The Queen of Spades, Act I: "Prosti, prelestnoe sozdanye"
--------------------------------------------------------------------------------
Number of tracks: 12
Official DR value: DR13
Samplerate: 88200 Hz
Channels: 2
Bits per sample: 24
Bitrate: 2036 kbps
Codec: FLAC
================================================================================

Скриншоты спектра частот

Доп. информация

При скачивании, если необходимо, переименуйте папку, в которой будет находиться альбомБольшая просьба к скачавшим поддерживать раздачу! Помогайте другим, ведь вам тоже может понадобиться помощь!Не забываем говорить "Спасибо"!Комментарии приветствуются!
[teatrix.ru].t21259.torrent 
Торрент: Зарегистрирован [ 2016-03-20 00:49 ] · 0C33E84C6392D537CF576517799C4DEA399BA03C

Скачать .torrent

Скачать

23 KB

Статус: проверено
Скачан: 0 раз
Размер: 3.42 GB
terms.php



Быстрый ответ

Имя:

      
Для отправки сообщений необходимо включить JavaScript
Показать сообщения:    

Текущее время: 09-Дек 20:30

Часовой пояс: UTC + 3


Вы можете начинать темы
Вы можете отвечать на сообщения
Вы не можете редактировать свои сообщения
Вы не можете удалять свои сообщения
Вы не можете голосовать в опросах
Вы не можете прикреплять файлы к сообщениям
Вы можете скачивать файлы