(Vocal, Orchestral) Gustav Mahler - Symphonie Nr.4 | Lieder eines fahrenden Gesellen | Des Knaben Wunderhorn (Joan Carlyle • Anna Reynolds • Elly Ameling • Benjamin Britten) - 1999, FLAC (image+.cue) lossless


 

[Цитировать]

Mahler - Symphony No.4
Lieder eines fahrenden Gesellen • Des Knaben Wunderhorn
Joan Carlyle • Anna Reynolds • Elly Ameling
London Symphony Orchestra • English Chamber Orchestra
Benjamin Britten
--- Жанр: Vocal
Страна-производитель диска: England
Год издания диска: 1999
Издатель (лейбл): BBC
Дата записи: 1961/69/72
Аудиокодек: FLAC
Тип рипа: image+.cue
Битрейт аудио: lossless
Продолжительность: 75'04''
Источник: собственный рип
Наличие сканов в содержимом раздачи: да
Треклист:
[01] Symphonie Nr.4: I. Bedächtig. Nicht eilen
[02] II. In gemächlicher Bewegung
[03] III. Ruhevoll
[04] IV. Sehr behaglich
[05] Lieder eines fahrenden Gesellen: I. Wenn mein Schatz Hochzeit macht
[06] II. Ging heut morgen übers Feld
[07] III. Ich hab ein glühend Messer
[08] IV. Die zwei blauen Augen
[09] Des Knaben Wunderhorn: Das irdische Leben
[10] Wer hat dies Liedlein erdacht?
Исполнители:
Joan Carlyle, soprano [1-4]
Anna Reynolds, mezzo-soprano [7-8]
Elly Ameling, soprano [9-10]
London Symphony Orchestra [1-4]
English Chamber Orchestra [5-10]
Benjamin Britten-

Лог создания рипа

Exact Audio Copy V1.0 beta 4 from 7. December 2014
EAC extraction logfile from 17. February 2015, 20:25
Benjamin Britten / Britten the Perforrmer - Mahler Symphony No.4
Used drive : HL-DT-STDVD+-RW GU90N Adapter: 1 ID: 0
Read mode : Secure
Utilize accurate stream : Yes
Defeat audio cache : Yes
Make use of C2 pointers : No
Read offset correction : 102
Overread into Lead-In and Lead-Out : No
Fill up missing offset samples with silence : Yes
Delete leading and trailing silent blocks : No
Null samples used in CRC calculations : Yes
Used interface : Native Win32 interface for Win NT & 2000
Used output format : User Defined Encoder
Selected bitrate : 1024 kBit/s
Quality : High
Add ID3 tag : No
Command line compressor : C:\Program Files (x86)\FLAC\flac.exe
Additional command line options : -T "COMMENT=rip by el coronel" -8 -V %source%
TOC of the extracted CD
Track | Start | Length | Start sector | End sector
---------------------------------------------------------
1 | 0:00.00 | 15:19.17 | 0 | 68941
2 | 15:19.17 | 8:54.00 | 68942 | 108991
3 | 24:13.17 | 20:21.20 | 108992 | 200586
4 | 44:34.37 | 8:39.68 | 200587 | 239579
5 | 53:14.30 | 3:51.50 | 239580 | 256954
6 | 57:06.05 | 3:58.20 | 256955 | 274824
7 | 61:04.25 | 3:09.00 | 274825 | 288999
8 | 64:13.25 | 5:33.25 | 289000 | 313999
9 | 69:46.50 | 2:54.60 | 314000 | 327109
10 | 72:41.35 | 2:22.57 | 327110 | 337816
Range status and errors
Selected range
Filename F:\Music\Mahler 4 Britten\CD.wav
Peak level 94.9 %
Extraction speed 5.0 X
Range quality 99.9 %
Test CRC FA94C97C
Copy CRC FA94C97C
Copy OK
No errors occurred
AccurateRip summary
Track 1 accurately ripped (confidence 6) [EF102F11] (AR v2)
Track 2 accurately ripped (confidence 6) [D7B86891] (AR v2)
Track 3 accurately ripped (confidence 6) [BE547437] (AR v2)
Track 4 accurately ripped (confidence 6) [5D2C85DD] (AR v2)
Track 5 accurately ripped (confidence 7) [B5BC8C48] (AR v2)
Track 6 accurately ripped (confidence 6) [C12D32C5] (AR v2)
Track 7 accurately ripped (confidence 6) [81F36241] (AR v2)
Track 8 accurately ripped (confidence 6) [01C62743] (AR v2)
Track 9 accurately ripped (confidence 6) [3B909FB7] (AR v2)
Track 10 accurately ripped (confidence 6) [5F9C6069] (AR v2)
All tracks accurately ripped
End of status report
---- CUETools DB Plugin V2.1.4
[CTDB TOCID: Yj1FK0fqMq24a13GKgtVRmDu2ko-] found
Submit result: Yj1FK0fqMq24a13GKgtVRmDu2ko- has been confirmed
Track | CTDB Status
1 | (3/3) Accurately ripped
2 | (3/3) Accurately ripped
3 | (3/3) Accurately ripped
4 | (3/3) Accurately ripped
5 | (3/3) Accurately ripped
6 | (3/3) Accurately ripped
7 | (3/3) Accurately ripped
8 | (3/3) Accurately ripped
9 | (3/3) Accurately ripped
10 | (3/3) Accurately ripped
==== Log checksum 15CDEDA131C68619C02113B22E505B0584EA2398C5CF809D507C67DF934E65E7 ====

Содержание индексной карты (.CUE)

REM GENRE Symphony
REM DATE 1999
REM DISCID A511980A
REM COMMENT "ExactAudioCopy v1.0b4"
PERFORMER "Benjamin Britten"
TITLE "Britten the Perforrmer - Mahler Symphony No.4"
FILE "CD.flac" WAVE
TRACK 01 AUDIO
TITLE "Symphony No.4: I. Bedachtig. Nicht eilen"
PERFORMER "Joan Carlyle; London Symphony Orchestra - Benjamin Britten"
INDEX 01 00:00:00
TRACK 02 AUDIO
TITLE "II. In gemachlicher Bewegung"
PERFORMER "Joan Carlyle; London Symphony Orchestra - Benjamin Britten"
INDEX 01 15:19:17
TRACK 03 AUDIO
TITLE "III. Ruhevoll"
PERFORMER "Joan Carlyle; London Symphony Orchestra - Benjamin Britten"
INDEX 01 24:13:17
TRACK 04 AUDIO
TITLE "IV. Sehr behaglich"
PERFORMER "Joan Carlyle; London Symphony Orchestra - Benjamin Britten"
INDEX 01 44:34:37
TRACK 05 AUDIO
TITLE "Lieder eines fahrenden Gesellen : I. Wenn mein Schatz Hochzeit macht"
PERFORMER "Anna Reynolds; English Chamber Orchestra - Benjamin Britten"
INDEX 00 53:06:10
INDEX 01 53:14:30
TRACK 06 AUDIO
TITLE "II. Ging heut morgen ubers Feld"
PERFORMER "Anna Reynolds; English Chamber Orchestra - Benjamin Britten"
INDEX 01 57:06:05
TRACK 07 AUDIO
TITLE "III. Ich hab ein gluhend Messer"
PERFORMER "Anna Reynolds; English Chamber Orchestra - Benjamin Britten"
INDEX 01 61:04:25
TRACK 08 AUDIO
TITLE "IV. Die zwei blauen Augen"
PERFORMER "Anna Reynolds; English Chamber Orchestra - Benjamin Britten"
INDEX 01 64:13:25
TRACK 09 AUDIO
TITLE "Des Knaben Wunderhorn: Das irdische Leben"
PERFORMER "Elly Ameling; English Chamber Orchestra - Benjamin Britten"
INDEX 00 69:38:10
INDEX 01 69:46:50
TRACK 10 AUDIO
TITLE "Wer hat dies Liedlein erdacht?"
PERFORMER "Elly Ameling; English Chamber Orchestra - Benjamin Britten"
INDEX 01 72:41:35



Показать сообщения:    

Текущее время: 09-Дек 22:26

Часовой пояс: UTC + 3


Вы не можете начинать темы
Вы не можете отвечать на сообщения
Вы не можете редактировать свои сообщения
Вы не можете удалять свои сообщения
Вы не можете голосовать в опросах
Вы не можете прикреплять файлы к сообщениям
Вы не можете скачивать файлы