Иосиф Бродский. Ниоткуда с любовью (Сергей Браверман) [24.05.2015, Документальный, биография, SATRip]


Статистика раздачи [Обновить пиров]
Размер:  744 MB   |    Зарегистрирован:  8 месяцев 15 дней   |    Скачан:  0 раз

Полного источника не было: Никогда

 
   
 
 
 

[Цитировать]

Иосиф Бродский. Ниоткуда с любовью
Страна: Россия
Телеканал: Первый
Дата эфира: 24.05.2015
Жанр: Документальный, биография
Продолжительность: 00h51'58"
Режиссёр: Сергей Браверман-Описание: В этом году Иосифу Бродскому исполнилось бы 75 лет. О жизни Бродского массовой зрительской аудитории известно довольно мало. Многое недоговорено и мифологизировано.
В день 24 мая 1940 года, когда поэт родился – Ленинград гулял. Не по поводу его рождения – в Кировском парке праздновали моряки. Может, с того дня, с любви к морю, к воде и дальним странствиям, и зачалась жизнь Иосифа Бродского – бродячая, неприкаянная, полная событий, встреч и расставаний.-Качество видео: SATRip
Формат файла: avi
Видео: кодек: XviD, размер кадра: 704x448, частота кадров: 25 fps, битрейт: 1800 kbps
Аудио: аудиокодек: ac3, частота дискретизации: 48 kHz, количество каналов: 2.0, битрейт аудио: 192 kbps-

Mediainfo

Общее
Полное имя                               : E:\Torrent\Iosif.Brodskiy-Niotkuda.s.Lyubovyu.avi
Формат                                   : AVI
Формат/Информация                        : Audio Video Interleave
Размер файла                             : 744 Мбайт
Продолжительность                        : 51 м.
Общий поток                              : 2002 Кбит/сек
Программа кодирования                    : VirtualDubMod 1.5.10.3 | www.virtualdub-fr.org || (build 2550/release)
Библиотека кодирования                   : VirtualDubMod build 2550/release
[br]
Видео
Идентификатор                            : 0
Формат                                   : MPEG-4 Visual
Профиль формата                          : Advanced Simple@L5
Параметр BVOP формата                    : 2
Параметр QPel формата                    : Нет
Параметр GMC формата                     : Без точки перехода
Параметр матрицы формата                 : Default (H.263)
Идентификатор кодека                     : XVID
Идентификатор кодека/Подсказка           : XviD
Продолжительность                        : 51 м.
Битрейт                                  : 1800 Кбит/сек
Ширина                                   : 704 пикселя
Высота                                   : 448 пикселей
Соотношение сторон                       : 16:10
Частота кадров                           : 25,000 кадров/сек
Цветовое пространство                    : YUV
Субдискретизация насыщенности            : 4:2:0
Битовая глубина                          : 8 бит
Тип развёртки                            : Прогрессивная
Метод сжатия                             : С потерями
Бит/(Пиксели*Кадры)                      : 0.228
Размер потока                            : 669 Мбайт (90%)
Библиотека кодирования                   : XviD 1.2.1 (UTC 2008-12-04)
[br]
Аудио
Идентификатор                            : 1
Формат                                   : AC-3
Формат/Информация                        : Audio Coding 3
Расширение режима                        : CM (complete main)
Параметр Endianness формата              : Big
Идентификатор кодека                     : 2000
Продолжительность                        : 51 м.
Вид битрейта                             : Постоянный
Битрейт                                  : 192 Кбит/сек
Каналы                                   : 2 канала
Расположение каналов                     : Front: L R
Частота                                  : 48,0 КГц
Битовая глубина                          : 16 бит
Метод сжатия                             : С потерями
Размер потока                            : 71,4 Мбайт (10%)
Выравнивание                             : Разделение по промежуткам
Продолжительность промежутка             : 40  мс. (1,00 видеокадр)
Время предзагрузки промежутка            : 500  мс.
-

Скриншоты

-
[teatrix.ru].t21262.torrent 
Торрент: Зарегистрирован [ 2016-03-20 00:48 ] · 31DE668261F08870AE8F26E554276A0209BFC893

Скачать .torrent

Скачать

15 KB

Статус: проверено
Скачан: 0 раз
Размер: 744 MB
terms.php



Быстрый ответ

Имя:

      
Для отправки сообщений необходимо включить JavaScript
Показать сообщения:    

Текущее время: 04-Дек 04:56

Часовой пояс: UTC + 3


Вы можете начинать темы
Вы можете отвечать на сообщения
Вы не можете редактировать свои сообщения
Вы не можете удалять свои сообщения
Вы не можете голосовать в опросах
Вы не можете прикреплять файлы к сообщениям
Вы можете скачивать файлы