[TR24][OF] Tchaikovsky/Чайковский & Chopin (Live From St. Petersburg’s White Nights 2012) - Ingolf Wunder, St. Petersburg Philharmonic Orchestra, Vladimir Ashkenazy / Оркестр Санкт-Петербургской филармонии, Владимир Ашкенази - 2014 (Classical)


Статистика раздачи [Обновить пиров]
Размер:  1.33 GB   |    Зарегистрирован:  8 месяцев 17 дней   |    Скачан:  0 раз

Полного источника не было: Никогда

 
   
 
 
 

[Цитировать]

Tchaikovsky & Chopin
Ingolf Wunder

St. Petersburg Philharmonic Orchestra
Vladimir Ashkenazy
-Год издания: 2014 | Жанр: Classical | Издатель: Deutsche Grammophon
Продолжительность: 01:12:40 | Сканы: Sleeve, Digital Booklet- -Контейнер: FLAC (*.flac) | Тип рипа: tracks
Разрядность: 24bit /96kHz | Количество каналов: 2.0-Ingolf Wunder, piano
St. Petersburg Philharmonic Orchestra
Vladimir Ashkenazy, conductor
Recorded live at St. Petersburg’s White Nights in June 2012
-Треклист
Pyotr Ilyich Tchaikovsky (1840-1893)
Piano Concerto No.1 In B Flat Minor, Op.23
01.1. Allegro non troppo e molto maestoso - Allegro con spirito (19:52)
02. 2. Andantino semplice - Prestissimo - Tempo I (6:19)
03. 3. Allegro con fuoco (6:48)
Frédéric Chopin (1810-1849)
Piano Concerto No.1 In E Minor, Op.11
04. 1. Allegro maestoso (19:46)
05. 2. Romance (Larghetto) (9:51)
06. 3. Rondo (Vivace) (10:04)

О релизе


Moments of magic
Young soloist Ingolf Wunder proves himself here with bags of swagger and skill, says Jessica Duchen, even if he's not always in agreement with Ashkenzy's orchestra.
'A brilliant young pianist covers two of the piano repertoire's best-loved works . . . This scintillating recording was made live at St. Petersburg's 2012 'White Nights Festival'. Here Wunder is accompanied by the magnificent St. Petersburg Philharmonic under the baton of the legendary Vladimir Ashkenazy . These are works that Ashkenazy knows well -- he has performed them himself as a pianist hundreds of times -- and he brings crisp, precise support to Wunder's reading. In Ashkenazy's own words, Wunder offers a performance that is 'convincing, fresh and interesting.' Certainly there are moments that are revelatory in these familiar works as Wunder gives every note appropriate weight and emphasis.' (Classic FM, London)
'Virtuoso dash and daredevil virtuosity come leaping out of the Tchaikovsky Piano Concerto No.1 as soon as this performance at Russia’s most famous music festival gets under way. The young soloist is Ingolf Wunder, winner of the second prize at the Chopin International Piano Competition 2010 and lucky enough to have been snapped up by Deutsche Grammophon afterwards. The conductor is the veteran maestro and pianist Vladimir Ashkenazy, whose feel for tempo is unerring, giving the Tchaikovsky’s great opening melody plenty of swing and swagger.
He and Wunder admittedly do not seem to be in perfect agreement at all times, but that slight sense of edgy tension is part of the fun of live recordings; and the freshness of Wunder’s playing is well-nigh irresistible. If you’ve got it, flaunt it, he seems to say, zipping through Tchaikovsky’s pyrotechnics as if this is the easiest thing in the world.
The Chopin concerto, though, is a fine counterbalance – especially the slow movement, a perfect nocturnal song without words from the youthful Polish composer, who adored bel canto opera. Wunder’s legato tone and gorgeous feel for phrasing make the piano’s melodic line sound, quite simply, like a singer. This quality is Chopin’s ultimate challenge, far beyond all that fingerwork, and he meets it marvellously. The orchestra’s style is rather full-on in this concerto, which could use subtler playing; Russian-sounding Chopin is a tad paradoxical. But the thrill of the live concert, and those special moments of magic, make this a must-hear disc.' (Jessica Duchen, Sinfini)

ОтчётыДинамический диапазон

foobar2000 1.2.2 / Dynamic Range Meter 1.1.1
log date: 2015-05-25 13:42:01
--------------------------------------------------------------------------------
Analyzed: Ingolf Wunder, St. Petersburg Philharmonic Orchestra, Vladimir Ashkenazy / Tchaikovsky & Chopin
--------------------------------------------------------------------------------
DR Peak RMS Duration Track
--------------------------------------------------------------------------------
DR13 -0.21 dB -17.97 dB 19:52 ?-Tchaikovsky: Piano Concerto No.1 In B Flat Minor, Op.23 - 1. Allegro non troppo e molto maestoso - Allegro con spirito
DR16 -1.12 dB -24.35 dB 6:19 ?-Tchaikovsky: Piano Concerto No.1 In B Flat Minor, Op.23 - 2. Andantino semplice - Prestissimo - Tempo I
DR11 -0.18 dB -15.84 dB 6:48 ?-Tchaikovsky: Piano Concerto No.1 In B Flat Minor, Op.23 - 3. Allegro con fuoco
DR12 -0.27 dB -18.14 dB 19:46 ?-Chopin: Piano Concerto No.1 In E Minor, Op.11 - 1. Allegro maestoso
DR14 -3.67 dB -24.55 dB 9:51 ?-Chopin: Piano Concerto No.1 In E Minor, Op.11 - 2. Romance (Larghetto)
DR13 -0.29 dB -17.66 dB 10:04 ?-Chopin: Piano Concerto No.1 In E Minor, Op.11 - 3. Rondo (Vivace)
--------------------------------------------------------------------------------
Number of tracks: 6
Official DR value: DR13
Samplerate: 96000 Hz
Channels: 2
Bits per sample: 24
Bitrate: 2653 kbps
Codec: FLAC
================================================================================

Скриншот спектра частот

Доп. информация

При скачивании, если необходимо, переименуйте папку, в которой будет находиться альбомБольшая просьба к скачавшим поддерживать раздачу! Помогайте другим, ведь вам тоже может понадобиться помощь!Не забываем говорить "Спасибо"!Комментарии приветствуются!
[teatrix.ru].t21263.torrent 
Торрент: Зарегистрирован [ 2016-03-20 00:48 ] · 31D196E04FA21D9BE0CD5E20BD6C73A6A96F1BE9

Скачать .torrent

Скачать

15 KB

Статус: проверено
Скачан: 0 раз
Размер: 1.33 GB
terms.php



Быстрый ответ

Имя:

      
Для отправки сообщений необходимо включить JavaScript
Показать сообщения:    

Текущее время: 06-Дек 20:56

Часовой пояс: UTC + 3


Вы можете начинать темы
Вы можете отвечать на сообщения
Вы не можете редактировать свои сообщения
Вы не можете удалять свои сообщения
Вы не можете голосовать в опросах
Вы не можете прикреплять файлы к сообщениям
Вы можете скачивать файлы