(Classical) [LP] [24/48] G. Handel - Judas Maccabaeus. Oratorio for soloists, chorus and orchestra (Excerpts) - Vilnius Boys Choir 'Azhuolyukas' * Symphony Orchestra Lithuanian State Philharmonic Conductor Juozas Domarkas - 1977, FLAC (tracks+.cue)


Статистика раздачи [Обновить пиров]
Размер:  521 MB   |    Зарегистрирован:  8 месяцев 17 дней   |    Скачан:  0 раз

Полного источника не было: Никогда

 
   
 
 
 

[Цитировать]

G. Handel - Judas Maccabaeus. Oratorio for soloists, chorus and orchestra - Vilnius Boys Choir 'Azhuolyukas' * Symphony Orchestra Lithuanian State Philharmonic Conductor Juozas Domarkas (Excerpts)
Жанр: Classical
Носитель: LP
Год выпуска: 1977
Лейбл: Melodya (VSG)
Страна-производитель: USSR
Аудио кодек: FLAC
Тип рипа: tracks+.cue
Формат записи: 32/192
Формат раздачи: 24/48
Продолжительность: 50.27 min
Треклист:
01. Overture
02. Choir (№ 1)
03. Choir (№ 4)
04. Chorus (№ 7)
05. Choir (№ 10)
06. Choir (№ 19)
07. Chorus (№ 21)
08. Choir (№ 25) 3:45
09. Choir (№ 26)
10. Aria (Soprano) (№ 38), Chorus (№ 39)
11. Aria (Tenor) and Chorus (№ 43)
12. Choir (№ 49)
13. Choir (№ 56)
14. Choir (№ 58)
15. Choir (№ 62)
16. Final Chorus (№ 66)
Источник оцифровки: автором раздачи
Код класса состояния винила: NM
Устройство воспроизведения: Электроника ЭП 017С
Головка звукоснимателя: Audio-Technica AT95
Предварительный усилитель: Бриг-001
АЦП: VIA HD audio device
Программа-оцифровщик: Izotope RX 4 Advanced
Обработка: Izotope RX 4 Advanced

Спектр+АЧХ+Уровень записи

DR=12

foobar2000 1.1.10 / Dynamic Range Meter 1.1.1
log date: 2015-05-25 18:44:00
--------------------------------------------------------------------------------
Analyzed: Vilnius Boys Choir "Azhuolyukas" * Symphony Orchestra Lithuanian State Philharmonic Conductor Juozas Domarkas / Judas Maccabaeus. Oratorio for soloists, chorus and orchestra (Excerpts)
--------------------------------------------------------------------------------
DR Peak RMS Duration Track
--------------------------------------------------------------------------------
DR12 -3.64 dB -19.21 dB 4:41 ?-Overture
DR13 -2.90 dB -21.26 dB 5:08 ?-Choir (№ 1)
DR14 -3.57 dB -24.34 dB 4:04 ?-Choir (№ 4)
DR13 -6.90 dB -23.40 dB 2:05 ?-Chorus (№ 7)
DR12 -3.09 dB -19.89 dB 1:10 ?-Choir (№ 10)
DR13 -4.70 dB -20.89 dB 0:59 ?-Choir (№ 19)
DR12 -4.83 dB -22.43 dB 2:00 ?-Chorus (№ 21)
DR12 -4.39 dB -20.50 dB 3:48 ?-Choir (№ 25) 3:45
DR13 -2.56 dB -19.65 dB 3:36 ?-Choir (№ 26)
DR13 -4.12 dB -24.36 dB 8:39 ?-Aria (Soprano) (№ 38), Chorus (№ 39)
DR12 -3.37 dB -19.27 dB 2:08 ?-Aria (Tenor) and Chorus (№ 43)
DR11 -3.78 dB -19.32 dB 3:30 ?-Choir (№ 49)
DR12 -3.23 dB -21.70 dB 2:06 ?-Choir (№ 56)
DR11 -3.51 dB -18.07 dB 2:13 ?-Choir (№ 58)
DR11 -4.76 dB -19.23 dB 2:17 ?-Choir (№ 62)
DR12 -3.29 dB -18.09 dB 2:03 ?-Final Chorus (№ 66)
--------------------------------------------------------------------------------
Number of tracks: 16
Official DR value: DR12
Samplerate: 48000 Hz
Channels: 2
Bits per sample: 24
Bitrate: 1524 kbps
Codec: FLAC
================================================================================

Back & Disc

Info

Оратория "Иуда Маккавей" Г. Ф. Генделя.
Иуда Маккавей - это реальный исторический персонаж, живший во II веке до н.э. Прославился этот человек тем, что вел борьбу с тираном, правящим в то время в Сирии. Антиох IV стремился к эллинизации Палестины, поэтому осквернял иудейские святыни. Когда дело коснулось Иерусалимского храма - народ восстал. Одним из предводителей защитников веры стал отец Иуды, священник Маттафий. Пятеро братьев Маккавея также принимали участие в противостоянии, которое продолжалась более двадцати лет.
После смерти отца Иуда (средний сын) возглавил это движение и под его руководством иудеи одерживали неоднократные победы в коротких стычках. Во время одного из таких сражений 160 года, Иуда Маккавей пал. Самый старший брат, Симон, взял управление толпами верующих в свои руки и, в конце концов, они одержали победу над тиранией. Обо всех этих событиях древности сохранилось несколько достоверных письменных источников, написанных современниками - о жизни Иуды Маккавея повествуется в Ветхом Завете (Маккавейская книга), в трудах Иосифа Флавия ("История иудейской войны") и др.
Имя его стало впоследствии нарицательным (переводится как "молот на врагов"). Во времена Генделя (XVII-XVIII века) этот сюжет снова стал актуальным, поскольку англичане, свергнувшие Стюартов, испытали через некоторое время нападение со стороны французов, за помощью к которым обратился наследник и возможный претендент на трон. Пуритане сами себя видели героями тех древних событий, а саму политическую ситуацию в Англии ассоциировали с библейско-иерусалимской.
На волне национального подъема и патетики Георг Фридрих Гендель пишет в это время ряд произведений особой тематики - творческого кризиса как не бывало (перед этим композитор очень переживал из-за того, что потерял симпатии аристократической публики, и вполне реально маячила перспектива банкротства). Среди произведений того периода - и оратория "Judas Maccabaeus". Написана оратория была в очень сжатые сроки - за два летних месяца.
Особенно, учитывая ее размеры: структура произведения выстраивается из 66 номеров! Сгруппированы они в три части: оркестровые и хоровые номера чередуются с сольными, при этом персонифицированных солистов всего двое, один из которых - главный герой. Чтобы не "мельчить", композитор противопоставляет контрасты не между отдельными номерами, а целыми блоками.
Либретто написано Томасом Морреллом, а первое исполнение "Иуды Маккавея" произошло в 1747 году, на премьере дирижировал сам автор. Исполнение в Ковент Гарден прошло с огромным успехом и бывшая слава вернулась к Генделю. Более того, это его произведение исполнялось при жизни Генделя чаще, чем любая другая из его ораторий.
[teatrix.ru].t21264.torrent 
Торрент: Зарегистрирован [ 2016-03-20 00:48 ] · 62205969C8598CC81BB114835A917467452FD04F

Скачать .torrent

Скачать

12 KB

Статус: проверено
Скачан: 0 раз
Размер: 521 MB
terms.php



Быстрый ответ

Имя:

      
Для отправки сообщений необходимо включить JavaScript
Показать сообщения:    

Текущее время: 06-Дек 22:55

Часовой пояс: UTC + 3


Вы можете начинать темы
Вы можете отвечать на сообщения
Вы не можете редактировать свои сообщения
Вы не можете удалять свои сообщения
Вы не можете голосовать в опросах
Вы не можете прикреплять файлы к сообщениям
Вы можете скачивать файлы