[TR24][SA] Maurice Ravel - Daphnis et Chloé, Boléro, Pavane (Daphnis et Chloe, Bolero, Pavane) - Валерий Гергиев / Valery Gergiev, London Symphony Orchestra - 2010 (Classical)


Статистика раздачи [Обновить пиров]
Размер:  1.3 GB   |    Зарегистрирован:  8 месяцев 20 дней   |    Скачан:  0 раз

Полного источника не было: Никогда

 
   
 
 
 

[Цитировать]

Maurice Ravel
Daphnis et Chloé · Boléro · Pavane
Valery Gergiev · London Symphony Orchestra
-Год издания: 2010 | Жанр: Classical | Издатель: LSO Live
Продолжительность: 01:18:36 | Источник: WEB
Сканы: Covers, Digital Booklet- -Контейнер: FLAC (*.flac) | Тип рипа: tracks
Разрядность: 24bit /88.2kHz | Количество каналов: 2.0-London Symphony Chorus · London Symphony Orchestra
Valery Gergiev (conductor)
Recorded live *20 & 24 September 2009
and **13 & 18 December 2009 at the Barbican, London

-Треклист
Maurice Ravel (1875-1937)
Daphnis et Chloé (1909–11)*
01.I. Introduction et Danse Religieuse (7:56)
02. II. Les jeunes filles attirent Daphnis - Danse Générale (3:35)
03. III. Danse grotesque de Dorcon (1:46)
04. IV. Danse légere et gracieuse de Daphnis - Lyceion danse - Les pirates (7:56)
05. V. Une lumiere irréelle enveloppe le paysage - Danse lente et mystérieuse (5:18)
06. VI. Daphnis se prosterne suppliant. Voix, tres lointaines - Animé et tres rude (Danse guerriere) - Bryaxis ordonne d'amener la captive (7:11)
07. VII. Danse suppliante de Chloé - Bryaxis veut l'entrainer - L'ombre de Pan apparait (6:03)
08. VIII. Lever du jour - Daphnis cherche pour Chloé et il reve d'elle - Daphnis et Chloé miment l'aventure de Pan et de Syrinx (7:10)
09. IX. Chloé réapparait (4:47)
10. X. Animé (Entre un groupe de jeunes filles costumées en bacchantes) - Danse Générale - Danse de Daphnis et Chloé - Danse de Dorcon - Danse finale (Bacchanale) (4:07)
Pavane pour une infante défunte (version for orchestra)**
11. Pavane pour une infante défunte (7:00)
Boléro**
12. Boléro (15:46)

О релизе


Ravel's ballet Daphnis et Chloé is essentially an extended tone poem, suffused with luscious orchestral colours, portraying the passion of the two protagonists for each other. By contrast, Pavane pour une infante défunte harks back to the simplicity of the eighteenth-century music of Rameau, whilst Boléro is a fiery showpiece, highlighting the Spanish influences that pervade a number of Ravel’s works.
“High voltage, but not high speed. Gergiev doesn't charge his way through the score. Indeed his measured 'Introduction et Danse religieuse' demonstrates his willingness to linger, but there's drama too. He is aided by superb playing...Boléro has precision and power” (Internetaion Record Review)
“The most striking thing about these fine performances is their seductive combination of tonal warmth and sparkling virtuoso finesse...Gergiev conjures up an intoxicatingly languorous soundworld for Daphnis, fully indulging its glittering palette of orchestral colours” (Classic FM Magazine)
“Those like me who enjoyed this conductor's Romeo & Juliet will not be disappointed with this new recording... the orchestral detail is impressive throughout... highly recommended” (Fanfare)

ОтчётыДинамический диапазон

foobar2000 1.2.2 / Dynamic Range Meter 1.1.1
log date: 2015-05-25 17:44:17
--------------------------------------------------------------------------------
Analyzed: Valery Gergiev, London Symphony Orchestra / Ravel: Daphnis et Chloé, Pavane, Boléro
--------------------------------------------------------------------------------
DR Peak RMS Duration Track
--------------------------------------------------------------------------------
DR15 -6.78 dB -30.20 dB 7:56 ?-Daphnis et Chloé: I. Introduction et Danse Religieuse
DR16 -6.25 dB -32.51 dB 3:35 ?-Daphnis et Chloé: II. Les jeunes filles attirent Daphnis - Danse Générale
DR16 -6.27 dB -29.59 dB 1:46 ?-Daphnis et Chloé: III. Danse grotesque de Dorcon
DR18 -6.12 dB -32.95 dB 7:56 ?-Daphnis et Chloé: IV. Danse légere et gracieuse de Daphnis - Lyceion danse - Les pirates
DR16 -19.58 dB -41.55 dB 5:18 ?-Daphnis et Chloé: V. Une lumiere irréelle enveloppe le paysage - Danse lente et mystérieuse
DR17 -5.37 dB -28.91 dB 7:11 ?-Daphnis et Chloé: VI. Daphnis se prosterne suppliant. Voix, tres lointaines - Animé et tres rude (Danse guerriere) - Bryaxis ordonne d'amener la captive
DR16 -7.48 dB -33.82 dB 6:03 ?-Daphnis et Chloé: VII. Danse suppliante de Chloé - Bryaxis veut l'entrainer - L'ombre de Pan apparait
DR16 -7.84 dB -31.82 dB 7:10 ?-Daphnis et Chloé: VIII. Lever du jour - Daphnis cherche pour Chloé et il reve d'elle - Daphnis et Chloé miment l'aventure de Pan et de Syrinx
DR18 -10.68 dB -35.85 dB 4:47 ?-Daphnis et Chloé: IX. Chloé réapparait
DR14 -4.60 dB -25.59 dB 4:07 ?-Daphnis et Chloé: X. Animé (Entre un groupe de jeunes filles costumées en bacchantes) - Danse Générale - Danse de Daphnis et Chloé - Danse de Dorcon - Danse finale (Bacchanale)
DR14 -20.81 dB -41.76 dB 7:00 ?-Pavane pour une infante défunte
DR17 -6.42 dB -30.41 dB 15:46 ?-Boléro
--------------------------------------------------------------------------------
Number of tracks: 12
Official DR value: DR16
Samplerate: 88200 Hz
Channels: 2
Bits per sample: 24
Bitrate: 2387 kbps
Codec: FLAC
================================================================================

Скриншот спектра частот

Доп. информация

При скачивании, если необходимо, переименуйте папку, в которой будет находиться альбомБольшая просьба к скачавшим поддерживать раздачу! Помогайте другим, ведь вам тоже может понадобиться помощь!Не забываем говорить "Спасибо"!Комментарии приветствуются!
[teatrix.ru].t21265.torrent 
Торрент: Зарегистрирован [ 2016-03-20 00:48 ] · 63589E7DE163C21B3B86BFFB3E2AA7BF579A1E54

Скачать .torrent

Скачать

15 KB

Статус: проверено
Скачан: 0 раз
Размер: 1.3 GB
terms.php



Быстрый ответ

Имя:

      
Для отправки сообщений необходимо включить JavaScript
Показать сообщения:    

Текущее время: 09-Дек 03:06

Часовой пояс: UTC + 3


Вы можете начинать темы
Вы можете отвечать на сообщения
Вы не можете редактировать свои сообщения
Вы не можете удалять свои сообщения
Вы не можете голосовать в опросах
Вы не можете прикреплять файлы к сообщениям
Вы можете скачивать файлы