[TR24][SACD-R] Richard Wagner, Der Ring Des Nibelungen - Sir Georg Solti/Wiener Philharmoniker (Boxset) - 2009 (Classical, Opera)


Статистика раздачи [Обновить пиров]
Размер:  19.72 GB   |    Зарегистрирован:  8 месяцев 17 дней   |    Скачан:  0 раз

Полного источника не было: Никогда

 
   
 
 
 

[Цитировать]

Sir Georg Solti / Wiener Philharmoniker / Der Ring Des Nibelungen
Жанр: Classical - Opera
Композитор: Richard Wagner
Оркестр: Vienna Philharmonic
Дирижер: Georg Solti
Издание: Boxset
Год издания/переиздания диска: 2009
Издатель(лейбл): Japan (Remastered)
Наличие сканов в содержимом раздачи: Да
Формат записи/Источник записи: [TR24][SACD-R]
Разрядность: 24/96
Количество каналов: 2.0
Контейнер: FLAC (*.flac)
Тип рипа: tracks
Источник: собственный рип
Рип с этой раздачи http://teatrix.ru/viewtopic.php?t=4703408. Спасибо Xant1k. Делал для себя. Мой Iconbit (медиаплеер) в детстве не научили понимать форматы DFF(DSF), поэтому я для него всё перевожу во flac. Вот и подумал, может не у меня одного такие заморочки. Foobar для конвертации не использовался

Треклист

1. "Das Rheingold" (2 discs)
2. "Die Walküre" (4 discs)
3. "Siegfried" (4 discs)
4. "Götterdämmerung" (4 discs)

Состав

Soloists plus Vienna State Opera Chorus (Götterdämmerung)

Скриншоты

Вырезы на 20+кГц конечно странные, но так в оригинале

Dynamic rangeDas RheingoldDisc 1

foobar2000 1.3.3 / Замер динамического диапазона (DR) 1.1.1
Дата отчёта: 2015-08-22 20:45:17
--------------------------------------------------------------------------------
Анализ: Sir Georg Solti, Wiener Philharmoniker / Wagner: Das Rheingold. Disc 1
--------------------------------------------------------------------------------
DR Пики RMS Продолжительность трека
--------------------------------------------------------------------------------
DR11 -4.95 дБ -21.32 дБ 4:15 01-Vorspiel
DR12 -5.81 дБ -21.44 дБ 2:24 02-Weia! Waga! Woge, du Welle!
DR14 -0.87 дБ -21.12 дБ 4:56 03-Garstig glatter glitschriger Glimmer!
DR13 -3.24 дБ -21.42 дБ 2:24 04-Wallala! Lalaleia!
DR13 -0.43 дБ -19.99 дБ 5:49 05-Lugt, Schwestern!
DR15 0.00 дБ -20.69 дБ 4:24 06-Der Welt Erbe gewann' ich zu eigen durch dich?
DR14 -1.84 дБ -21.36 дБ 10:53 07-Wotan! Gemahl! Erwache!
DR14 0.00 дБ -19.53 дБ 7:28 08-Sanft schlos Schlaf dein Aug'
DR13 -0.98 дБ -18.97 дБ 1:40 09-Zu mir, Freia! Meide sie, Frecher!
DR14 -3.63 дБ -23.93 дБ 3:45 10-Endlich Loge!
DR17 -3.11 дБ -25.33 дБ 7:01 11-Immer ist Undank Loges Lohn!
DR14 -3.53 дБ -23.73 дБ 3:07 12-Ein Runenzauber zwingt das Gold zum Reif
DR13 -1.82 дБ -21.11 дБ 2:47 13-Hor', Wotan, der Harrenden Wort!
DR15 -6.36 дБ -29.00 дБ 5:09 14-Was sinnt nun Wotan so wild?
DR13 0.00 дБ -19.28 дБ 4:30 15-Auf, Loge, hinab mit mir! ... Hehe! hehe! hieher!
--------------------------------------------------------------------------------
Количество треков: 15
Реальные значения DR: DR14
Частота: 96000 Гц
Каналов: 2
Разрядность: 24
Битрейт: 3269 кбит/с
Кодек: FLAC
================================================================================

Disc 2

foobar2000 1.3.3 / Замер динамического диапазона (DR) 1.1.1
Дата отчёта: 2015-08-22 20:51:10
--------------------------------------------------------------------------------
Анализ: Sir Georg Solti, Wiener Philharmoniker / Wagner: Das Rheingold. Disc 2
--------------------------------------------------------------------------------
DR Пики RMS Продолжительность трека
--------------------------------------------------------------------------------
DR17 0.00 дБ -22.30 дБ 2:10 01-Schau, du Schelm!
DR14 -0.44 дБ -21.72 дБ 5:20 02-Nibelheim hier
DR15 0.00 дБ -20.90 дБ 7:33 03-Nehmt euch in acht!
DR15 -4.84 дБ -26.56 дБ 3:55 04-Vergeh, frevelnder Gauch!
DR12 0.00 дБ -19.31 дБ 6:30 05-Ohe! Ohe! Schreckliche Schlange
DR12 0.00 дБ -19.14 дБ 4:41 06-Da, Vetter, sitze du fest!
DR15 -0.32 дБ -21.60 дБ 5:35 07-Gezahlt hab' ich; nun last mich zieh'n!
DR14 0.00 дБ -20.71 дБ 4:09 08-Bin ich nun frei? Wirklich frei?
DR14 -4.11 дБ -24.76 дБ 5:17 09-Fasolt und Fafner nahen von fern
DR14 -0.42 дБ -20.08 дБ 5:48 10-Gepflanzt sind die Pfahle
DR14 -5.05 дБ -25.85 дБ 6:00 11-Weiche, Wotan, weiche!
DR13 -0.35 дБ -20.56 дБ 6:34 12-Hort, ihr Riesen! Zuruck, und harret!
DR13 0.00 дБ -17.75 дБ 3:12 13-Schwules Gedunst ... Zur Burg fuhrt die Brucke
DR13 -0.74 дБ -19.52 дБ 4:51 14-Abendlich strahlt der Sonne Auge
DR11 0.00 дБ -16.46 дБ 3:41 15-Rheingold! Rheingold! Reines Gold!
--------------------------------------------------------------------------------
Количество треков: 15
Реальные значения DR: DR14
Частота: 96000 Гц
Каналов: 2
Разрядность: 24
Битрейт: 3293 кбит/с
Кодек: FLAC
================================================================================

Die WalkureDisc 1

foobar2000 1.3.3 / Замер динамического диапазона (DR) 1.1.1
Дата отчёта: 2015-08-22 20:54:48
--------------------------------------------------------------------------------
Анализ: Sir Georg Solti, Wiener Philharm / Wagner: Die Walkure. Disc 1
--------------------------------------------------------------------------------
DR Пики RMS Продолжительность трека
--------------------------------------------------------------------------------
DR13 -2.48 дБ -22.56 дБ 6:02 01-Aus dem Wald trieb es mich fort
DR13 -0.91 дБ -20.59 дБ 6:44 02-Du bist der Lenz
DR14 -1.14 дБ -22.03 дБ 6:10 03-Ein Schwert verhies mir der Vate
DR13 -2.05 дБ -24.96 дБ 4:26 04-Friedmund darf ich nicht heisen
DR15 -0.10 дБ -24.09 дБ 5:40 05-Ich weis ein wildes Geschlecht
DR15 -4.57 дБ -25.47 дБ 9:35 06-Kuhlende Labung gab mir der Quel
DR15 -3.20 дБ -27.09 дБ 5:07 07-Mud am Herd fand ich den Mann
DR12 -0.47 дБ -19.19 дБ 6:47 08-Schlafst du Gast?
DR10 0.00 дБ -15.75 дБ 3:16 09-Vorspiel
DR12 0.00 дБ -17.17 дБ 5:05 10-Wehwalt heist du furwahr?
DR14 -5.08 дБ -24.88 дБ 4:02 11-Wes Herd dies auch sei
DR12 -1.49 дБ -21.63 дБ 2:55 12-Wintersturme wichen dem Wonnemon
--------------------------------------------------------------------------------
Количество треков: 12
Реальные значения DR: DR13
Частота: 96000 Гц
Каналов: 2
Разрядность: 24
Битрейт: 3234 кбит/с
Кодек: FLAC
================================================================================

Disc 2

foobar2000 1.3.3 / Замер динамического диапазона (DR) 1.1.1
Дата отчёта: 2015-08-22 20:57:29
--------------------------------------------------------------------------------
Анализ: Sir Georg Solti, Wiener Philharm / Wagner: Die Walkure. Disc 2
--------------------------------------------------------------------------------
DR Пики RMS Продолжительность трека
--------------------------------------------------------------------------------
DR14 -3.24 дБ -22.19 дБ 4:40 01-Der alte Sturm, die alte Muh'!
DR12 -2.26 дБ -21.43 дБ 10:29 02-Ein andres ist's: achte es wohl
DR14 -1.81 дБ -22.44 дБ 8:13 03-Hinweg! Hinweg! Flieh die Entwei
DR13 -2.32 дБ -20.39 дБ 5:15 04-Nichts lerntest du
DR11 -1.64 дБ -17.64 дБ 2:50 05-Nun zaume dein Ros, reisige Maid
DR13 -0.39 дБ -20.51 дБ 7:03 06-O sag, kunde, was soll nun dein
DR13 -0.76 дБ -20.54 дБ 3:27 07-Raste nun hier; gonne dir Ruh!
DR12 -4.45 дБ -24.06 дБ 4:43 08-Schlimm, furcht ichm schlos der
DR11 -2.53 дБ -18.57 дБ 2:58 09-So ist es denn aus mit den ewige
DR11 0.00 дБ -13.54 дБ 2:18 10-Vorspiel
DR14 -9.38 дБ -29.22 дБ 6:07 11-Was keinem in Worten ich kunde
DR14 0.00 дБ -22.47 дБ 6:17 12-Was verlangst du?
--------------------------------------------------------------------------------
Количество треков: 12
Реальные значения DR: DR13
Частота: 96000 Гц
Каналов: 2
Разрядность: 24
Битрейт: 3137 кбит/с
Кодек: FLAC
================================================================================

Disc 3

foobar2000 1.3.3 / Замер динамического диапазона (DR) 1.1.1
Дата отчёта: 2015-08-22 21:00:13
--------------------------------------------------------------------------------
Анализ: Sir Georg Solti, Wiener Philharm / Wagner: Die Walkure. Disc 3
--------------------------------------------------------------------------------
DR Пики RMS Продолжительность трека
--------------------------------------------------------------------------------
DR13 -0.86 дБ -20.76 дБ 5:58 01-Hehr bist du, und heilig
DR12 -0.43 дБ -18.91 дБ 6:12 02-Kehrte der Vater nur heim
DR12 -7.28 дБ -26.05 дБ 7:21 03-Siegmund! Sieh auf mich!
DR12 -1.29 дБ -18.76 дБ 5:06 04-So wenig achtest du ewige Wonne?
DR13 -3.73 дБ -23.87 дБ 3:59 05-Zauberfest bezahmt ein Schlaf
--------------------------------------------------------------------------------
Количество треков: 5
Реальные значения DR: DR13
Частота: 96000 Гц
Каналов: 2
Разрядность: 24
Битрейт: 3061 кбит/с
Кодек: FLAC
================================================================================

Disc 4

foobar2000 1.3.3 / Замер динамического диапазона (DR) 1.1.1
Дата отчёта: 2015-08-22 21:02:53
--------------------------------------------------------------------------------
Анализ: Sir Georg Solti, Wiener Philharm / Wagner: Die Walkure. Disc 4
--------------------------------------------------------------------------------
DR Пики RMS Продолжительность трека
--------------------------------------------------------------------------------
DR14 0.00 дБ -20.20 дБ 9:58 01-Denn einer nur freie die Braut
DR13 -0.47 дБ -20.17 дБ 5:33 02-Du zeugtest ein edles Geschlecht
DR13 -2.08 дБ -20.46 дБ 4:09 03-Hier bin ich, Vater
DR12 0.00 дБ -16.00 дБ 8:26 04-Hojotoho! Heiaha!
DR10 -1.61 дБ -16.85 дБ 2:18 05-Leb wohl, du kuhnes, herrliches
DR10 -1.59 дБ -16.76 дБ 4:53 06-Loge, hor! Lausche hieher!
DR12 0.00 дБ -17.09 дБ 5:20 07-Nicht sehre dich Sorge um mich
DR12 -3.06 дБ -22.05 дБ 4:48 08-Nicht weise bin ich, doch wusst'
DR12 -0.32 дБ -17.62 дБ 3:18 09-Schutzt mich und helft in hochst
DR14 -2.19 дБ -22.47 дБ 6:48 10-So tatest du, was so gern zu tun
DR10 -0.30 дБ -13.92 дБ 0:56 11-Steh, Brunnhild'
DR14 -5.93 дБ -26.54 дБ 5:20 12-War es so schmahlich
DR12 0.00 дБ -16.70 дБ 4:24 13-Wehe! Weh! Schwester, ach Schwes
DR12 0.00 дБ -17.83 дБ 4:08 14-Wo ist Brunnhild', wo die Verbre
--------------------------------------------------------------------------------
Количество треков: 14
Реальные значения DR: DR12
Частота: 96000 Гц
Каналов: 2
Разрядность: 24
Битрейт: 3297 кбит/с
Кодек: FLAC
================================================================================

SiegfriedDisc 1

foobar2000 1.3.3 / Замер динамического диапазона (DR) 1.1.1
Дата отчёта: 2015-08-22 21:05:34
--------------------------------------------------------------------------------
Анализ: Sir Georg Solti, Wiener Philharm / Wagner: Siegfried. Disc 1
--------------------------------------------------------------------------------
DR Пики RMS Продолжительность трека
--------------------------------------------------------------------------------
DR13 -4.40 дБ -24.27 дБ 1:40 01-Als zullendes Kind zog ich dich
DR11 -1.13 дБ -18.73 дБ 1:46 02-Da sturmt er hin!
DR14 0.00 дБ -18.04 дБ 2:51 03-Die Stucken! Das Schwert! O weh!
DR13 0.00 дБ -18.81 дБ 2:24 04-Du hast du die Stucken, schandli
DR14 -3.44 дБ -23.77 дБ 5:39 05-Einst lag wimmernd ein Weib
DR10 -2.64 дБ -18.38 дБ 0:30 06-Heda! Du Fauler!
DR12 -0.52 дБ -18.55 дБ 3:36 07-Heil dir, weiser Schmied!
DR14 0.00 дБ -19.52 дБ 10:23 08-Hier sitz' ich am Herd
DR11 -1.27 дБ -17.74 дБ 1:39 09-Hoiho! Hoiho! Hau ein! Hau ein!
DR12 0.00 дБ -15.71 дБ 1:20 10-Und diese Stucke sollst du mir s
DR10 -1.02 дБ -18.56 дБ 1:03 11-Verfluchtes Licht!
DR15 0.00 дБ -21.40 дБ 8:32 12-Vieles lehrtest du, Mime
DR15 -1.21 дБ -22.69 дБ 3:46 13-Vorspiel
DR14 0.00 дБ -20.25 дБ 7:22 14-Was zu wissen dir frommt
DR13 -1.71 дБ -20.22 дБ 4:15 15-Zwangvolle Plage! Muh ohne Zweck
--------------------------------------------------------------------------------
Количество треков: 15
Реальные значения DR: DR13
Частота: 96000 Гц
Каналов: 2
Разрядность: 24
Битрейт: 3190 кбит/с
Кодек: FLAC
================================================================================

Disc 2

foobar2000 1.3.3 / Замер динамического диапазона (DR) 1.1.1
Дата отчёта: 2015-08-22 21:07:40
--------------------------------------------------------------------------------
Анализ: Sir Georg Solti, Wiener Philharm / Wagner: Siegfried. Disc 2
--------------------------------------------------------------------------------
DR Пики RMS Продолжительность трека
--------------------------------------------------------------------------------
DR14 -0.20 дБ -21.01 дБ 2:59 01-Bist du es, Kind?
DR14 -4.15 дБ -27.34 дБ 1:44 02-Das der mein Vater nicht ist
DR13 0.00 дБ -20.60 дБ 2:47 03-Fafner, Fafner! Erwache, Wurm!
DR13 0.00 дБ -20.10 дБ 5:13 04-Fuhltest du nie im finstren Wald
DR12 -0.01 дБ -16.75 дБ 3:11 05-Her mit den Stucken, fort mit de
DR11 0.00 дБ -15.07 дБ 5:52 06-Hoho! Hoho! Hohei!
DR14 -0.25 дБ -21.76 дБ 2:13 07-In Wald und Nacht
DR12 -0.46 дБ -21.02 дБ 2:21 08-Mit mir nicht, hadre mit Mime
DR12 0.00 дБ -16.68 дБ 8:27 09-Notung! Notung! Neidliches Schwe
DR13 -0.09 дБ -19.88 дБ 3:38 10-Nun, Alberich! das schlug fehl
DR14 0.00 дБ -20.01 дБ 5:16 11-Vorspiel
DR15 -1.41 дБ -22.21 дБ 6:06 12-Wir sind zur Stelle!
DR13 0.00 дБ -17.63 дБ 5:48 13-Zur Neidhohle fuhr ich bei Nacht
--------------------------------------------------------------------------------
Количество треков: 13
Реальные значения DR: DR13
Частота: 96000 Гц
Каналов: 2
Разрядность: 24
Битрейт: 3278 кбит/с
Кодек: FLAC
================================================================================

Disc 3

foobar2000 1.3.3 / Замер динамического диапазона (DR) 1.1.1
Дата отчёта: 2015-08-22 21:11:25
--------------------------------------------------------------------------------
Анализ: Sir Georg Solti, Wiener Philharm / Wagner: Siegfried. Disc 3
--------------------------------------------------------------------------------
DR Пики RMS Продолжительность трека
--------------------------------------------------------------------------------
DR15 -5.54 дБ -29.43 дБ 2:37 01-Aber wie sah meine Mutter wohl a
DR13 -0.58 дБ -19.52 дБ 8:53 02-Da lieg auch du, dunkler Wurm!
DR10 0.00 дБ -15.68 дБ 5:33 03-Haha! Da hatte mein Lied!
DR17 -2.16 дБ -26.00 дБ 5:50 04-Meine Mutter, ein Menschenweib!
DR15 -0.41 дБ -20.35 дБ 10:34 05-Stark ruft das Lied
DR10 0.00 дБ -13.39 дБ 2:01 06-Vorspiel
DR12 -0.08 дБ -16.14 дБ 1:57 07-Wache, Wala!
DR13 -2.58 дБ -25.25 дБ 2:54 08-Was ihr mir nutzt, weis ich nich
DR13 0.00 дБ -21.47 дБ 4:32 09-Wer bist du, kuhner Knabe
DR15 -2.53 дБ -23.22 дБ 8:57 10-Willkommen, Siegfried
DR13 -3.13 дБ -21.07 дБ 2:45 11-Wohin schleichst du
DR14 -3.95 дБ -25.99 дБ 2:13 12-Zur Kunde taugt kein Toter
--------------------------------------------------------------------------------
Количество треков: 12
Реальные значения DR: DR13
Частота: 96000 Гц
Каналов: 2
Разрядность: 24
Битрейт: 3072 кбит/с
Кодек: FLAC
================================================================================

Disc 4

foobar2000 1.3.3 / Замер динамического диапазона (DR) 1.1.1
Дата отчёта: 2015-08-22 21:13:36
--------------------------------------------------------------------------------
Анализ: Sir Georg Solti, Wiener Philharm / Wagner: Siegfried. Disc 4
--------------------------------------------------------------------------------
DR Пики RMS Продолжительность трека
--------------------------------------------------------------------------------
DR13 0.00 дБ -19.65 дБ 7:06 01-Das ist kein Mann!
DR11 -0.02 дБ -17.47 дБ 4:52 02-Dir Unweisen ruf' ich ins Ohr
DR13 -0.36 дБ -19.97 дБ 8:04 03-Dort seh' ich Grane
DR13 0.00 дБ -18.24 дБ 11:16 04-Ewig war ich, ewig bin ich
DR13 0.00 дБ -18.95 дБ 6:08 05-Heil dir, Sonne! Heil dir, Licht
DR13 0.00 дБ -17.52 дБ 5:13 06-Kenntest du mich, kuhner Spros
DR9 -7.01 дБ -21.50 дБ 0:23 07-Mein Voglein schwebte mir fort!
DR12 0.00 дБ -16.21 дБ 3:49 08-Mit zerfochtner Waffe wich mir d
DR13 -1.25 дБ -20.75 дБ 6:48 09-O Siegfried! Siegfried! Seliger
DR15 -5.78 дБ -28.57 дБ 7:07 10-Selige Ode auf sonniger Hoh'
DR14 0.00 дБ -20.63 дБ 5:19 11-Wohin, Knabe, heist dich dein We
--------------------------------------------------------------------------------
Количество треков: 11
Реальные значения DR: DR13
Частота: 96000 Гц
Каналов: 2
Разрядность: 24
Битрейт: 3218 кбит/с
Кодек: FLAC
================================================================================

GötterdämmerungDisc 1

foobar2000 1.3.3 / Замер динамического диапазона (DR) 1.1.1
Дата отчёта: 2015-08-22 21:16:08
--------------------------------------------------------------------------------
Анализ: Sir Georg Solti, Wiener Philharm / Wagner: Götterdämmerung. Disc 1
--------------------------------------------------------------------------------
DR Пики RMS Продолжительность трека
--------------------------------------------------------------------------------
DR14 -1.97 дБ -23.40 дБ 7:46 01 - Welch Licht leuchtet dort
DR12 -2.79 дБ -20.56 дБ 2:07 02 - Treu beratner Vertrage Runen
DR15 0.00 дБ -20.80 дБ 8:05 03 - Es ragt die Burg, von Riesen gebaut
DR13 -1.20 дБ -21.38 дБ 6:36 04 - Zu neuen Taten, teurer Helde
DR13 -0.58 дБ -18.16 дБ 5:38 05 - Willst du mir Minne schenken
DR11 -0.95 дБ -14.41 дБ 2:27 06 - O heilige Gotter! Hehre Geschlechter!
DR11 0.00 дБ -18.58 дБ 5:57 07 - Orchesterzwischenspiel (Siegfrieds Rheinfahrt)
DR13 -4.45 дБ -23.44 дБ 2:34 08 - Nun hor, Hagen, sage mir, Held
DR14 -1.95 дБ -22.15 дБ 8:03 09 - Wen ratst du nun zu frein
DR12 -0.83 дБ -19.41 дБ 3:43 10 - Jagt er auf Taten wonnig umher
DR12 -0.87 дБ -20.17 дБ 2:02 11 - Wer ist Gibichs Sohn
DR14 -1.35 дБ -21.45 дБ 3:59 12 - Begruse froh, o Held, die Halle
DR14 -2.33 дБ -23.77 дБ 3:51 13 - Willkommen, Gast, in Gibichs Haus
--------------------------------------------------------------------------------
Количество треков: 13
Реальные значения DR: DR13
Частота: 96000 Гц
Каналов: 2
Разрядность: 24
Битрейт: 3122 кбит/с
Кодек: FLAC
================================================================================

Disc 2

foobar2000 1.3.3 / Замер динамического диапазона (DR) 1.1.1
Дата отчёта: 2015-08-22 21:18:27
--------------------------------------------------------------------------------
Анализ: Sir Georg Solti, Wiener Philharm / Wagner: Götterdämmerung. Disc 2
--------------------------------------------------------------------------------
DR Пики RMS Продолжительность трека
--------------------------------------------------------------------------------
DR13 -2.55 дБ -21.14 дБ 4:01 01 - Deinem Bruder bot ich mich zum Mann
DR12 -0.01 дБ -17.27 дБ 4:18 02 - Bluhenden Lebens labendes Blut
DR13 -0.47 дБ -18.25 дБ 2:34 03 - Frisch auf die Fahrt!
DR14 0.00 дБ -21.25 дБ 10:55 04 - Hier sitz' ich zur Wacht
DR14 0.00 дБ -19.42 дБ 7:18 05 - Altgewohntes Gerausch raunt meinem Ohr in die Ferne
DR15 -0.85 дБ -23.48 дБ 10:31 06 - Hore mit Sinn, was ich dir sage
DR12 -0.41 дБ -17.48 дБ 7:05 07 - Welch banger Traume Maren
DR10 -0.68 дБ -16.28 дБ 1:40 08 - Was leckt so wutend
DR13 0.00 дБ -18.05 дБ 9:03 09 - Brunnhild'! Ein Freier kam
--------------------------------------------------------------------------------
Количество треков: 9
Реальные значения DR: DR13
Частота: 96000 Гц
Каналов: 2
Разрядность: 24
Битрейт: 3215 кбит/с
Кодек: FLAC
================================================================================

Disc 3

foobar2000 1.3.3 / Замер динамического диапазона (DR) 1.1.1
Дата отчёта: 2015-08-22 21:20:38
--------------------------------------------------------------------------------
Анализ: Sir Georg Solti, Wiener Philharm / Wagner: Götterdämmerung. Disc 3
--------------------------------------------------------------------------------
DR Пики RMS Продолжительность трека
--------------------------------------------------------------------------------
DR12 -2.43 дБ -20.57 дБ 3:52 01 - Vorspiel
DR15 -3.80 дБ -24.47 дБ 9:06 02 - Schlafst du, Hagen, mein Sohn
DR13 0.00 дБ -18.39 дБ 2:37 03 - Hoiho, Hagen! Muder Mann!
DR12 -0.50 дБ -16.68 дБ 3:51 04 - Heis mich willkommen, Gibichskind!
DR10 0.00 дБ -13.29 дБ 8:59 05 - Hoiho! Ihr Gibichsmannen
DR10 0.00 дБ -16.06 дБ 3:42 06 - Heil dir, Gunther!
DR14 0.00 дБ -20.34 дБ 4:29 07 - Gegrust sei, teurer Held!
DR11 0.00 дБ -15.07 дБ 3:16 08 - Einen Ring sah ich an deiner Hand
DR11 0.00 дБ -13.99 дБ 5:31 09 - Heil'ge Gotter, himmlische Lenker!
DR11 0.00 дБ -15.43 дБ 3:00 10 - Helle Wehr! Heilige Waffe!
DR12 -0.93 дБ -18.50 дБ 3:11 11 - Gunther, wehr deinem Weibe
DR13 -1.25 дБ -20.92 дБ 3:47 12 - Welches Unholds List liegt hier verhohlen
DR13 -3.60 дБ -21.87 дБ 3:25 13 - Vertraue mir, betrogne Frau
DR12 0.00 дБ -15.98 дБ 8:16 14 - Auf, Gunther, edler Gibichung
--------------------------------------------------------------------------------
Количество треков: 14
Реальные значения DR: DR12
Частота: 96000 Гц
Каналов: 2
Разрядность: 24
Битрейт: 3432 кбит/с
Кодек: FLAC
================================================================================

Disc 4

foobar2000 1.3.3 / Замер динамического диапазона (DR) 1.1.1
Дата отчёта: 2015-08-22 21:23:03
--------------------------------------------------------------------------------
Анализ: Sir Georg Solti, Wiener Philharm / Wagner: Götterdämmerung. Disc 4
--------------------------------------------------------------------------------
DR Пики RMS Продолжительность трека
--------------------------------------------------------------------------------
DR12 -4.44 дБ -22.28 дБ 1:44 01 - Vorspiel
DR13 -3.17 дБ -21.68 дБ 4:40 02 - Frau Sonne sendet lichte Strahlen
DR14 -1.34 дБ -21.09 дБ 3:30 03 - Ein Albe fuhrte mich irr
DR12 -2.90 дБ -21.46 дБ 1:21 04 - Was leid' ich doch das karge Lob
DR13 -0.06 дБ -19.61 дБ 7:29 05 - Siegfried!
DR12 -3.50 дБ -20.70 дБ 3:35 06 - Hoiho!
DR13 -3.43 дБ -21.66 дБ 2:25 07 - Trink, Gunther, trink
DR14 -2.63 дБ -22.88 дБ 4:36 08 - Mime hies ein murrischer Zwerg
DR12 -0.61 дБ -18.90 дБ 5:22 09 - In Leid zu dem Wipfel lauscht' ich hinauf
DR14 0.00 дБ -20.97 дБ 5:22 10 - Brunnhilde, heilige Braut! (Siegfrieds Tod)
DR11 0.00 дБ -16.74 дБ 6:35 11 - Trauermarsch
DR16 -5.51 дБ -29.12 дБ 2:34 12 - War das sein Horn
DR12 -1.22 дБ -18.26 дБ 2:39 13 - Hoiho! Hoiho! Wacht auf! Wacht auf!
DR12 -2.27 дБ -17.57 дБ 2:05 14 - Nicht klage wider mich!
DR13 -3.29 дБ -22.10 дБ 3:45 15 - Schweigt eures Jammers jauchzenden Schwall
DR13 -1.46 дБ -20.79 дБ 8:55 16 - Starke Scheite schichtet mir dort
DR12 -5.17 дБ -23.97 дБ 2:32 17 - Mein Erbe nun nehm' ich zu eigen
DR10 0.00 дБ -14.61 дБ 8:40 ?-18 - Fliegt heim, ihr Raben!
--------------------------------------------------------------------------------
Количество треков: 18
Реальные значения DR: DR13
Частота: 96000 Гц
Каналов: 2
Разрядность: 24
Битрейт: 3495 кбит/с
Кодек: FLAC
================================================================================
[teatrix.ru].t21267.torrent 
Торрент: Зарегистрирован [ 2016-03-20 00:48 ] · F3C69BB1BB56118DD5AD16530DA36942FCA8B3E1

Скачать .torrent

Скачать

69 KB

Статус: проверено
Скачан: 0 раз
Размер: 19.72 GB
terms.php



Быстрый ответ

Имя:

      
Для отправки сообщений необходимо включить JavaScript
Показать сообщения:    

Текущее время: 06-Дек 13:14

Часовой пояс: UTC + 3


Вы можете начинать темы
Вы можете отвечать на сообщения
Вы не можете редактировать свои сообщения
Вы не можете удалять свои сообщения
Вы не можете голосовать в опросах
Вы не можете прикреплять файлы к сообщениям
Вы можете скачивать файлы