(Classical, Lute) [LP] [24/48] Владимир Федорович Вавилов - Лютневая Музыка XVI-XVII Века - Francesco da Milano, Giulio Caccini, N. Nigrino, Vincenzo Galilei, Hans Neusiedler, Jean Antoin Baif, Denis Gautier - 1980, FLAC (tracks+.cue)


Статистика раздачи [Обновить пиров]
Размер:  403 MB   |    Зарегистрирован:  8 месяцев 16 дней   |    Скачан:  0 раз

Полного источника не было: Никогда

 
   
 
 
 

[Цитировать]

Владимир Федорович Вавилов - Лютневая Музыка XVI-XVII Века - Francesco da Milano, Giulio Caccini, N. Nigrino, Vincenzo Galilei, Hans Neusiedler, Jean Antoin Baif, Denis Gautier
Жанр: Classical, Lute
Носитель: LP
Год выпуска: 1980
Лейбл: Melodya (VSG)
Страна-производитель: USSR
Аудио кодек: FLAC
Тип рипа: tracks+.cue
Формат записи: 32/192
Формат раздачи: 24/48
Продолжительность: 39.37 min
Треклист:
Владимир Федорович Вавилов (1925 - 1973)
01. Francesco da Milano - Canzona And Dance / Канцона и Танец
02. Folk Music Of The 16th Century - Spandogletta / Спандольетта
03. Giulio Caccini - Ave Maria
04. N. Nigrino - Ricercare / Ричеркар
05. Vincenzo Galilei - Padoana And Galliard / Павана и Гальярда
06. Hans Neusiedler - Chaconne / Чакона
07. From English Folk Lute Music Of The 16th Century - Green Sleeves' And Galliard / Песня "Зелёные рукава" и Гальярда
08. Old French Folk Dance - Tourdion / Турдьон
09. Jean Antoin Baif - Pasturella / Пастурелла
10. Denis Gautier - Gavotte / Гавот
Владимир Вавилов (лютня)
Виталий Буяновский (валторна, 2)
Надежда Вайнер (меццо-сопрано, 3)
Марк Шахин (орган, 3 и 4; клавесин, 9)
Владимир Курлин (гобой, 7)
Лев Перепелкин (флейта, 8 и 10)
Источник оцифровки: автором раздачи
Код класса состояния винила: NM
Устройство воспроизведения: Электроника ЭП 017С
Головка звукоснимателя: Audio-Technica AT95
Предварительный усилитель: Бриг-001
АЦП: VIA HD audio device
Программа-оцифровщик: Izotope RX 4 Advanced
Обработка: Izotope RX 4 Advanced

Спектр+АЧХ+Уровень записи

DR=12

foobar2000 1.1.10 / Dynamic Range Meter 1.1.1
log date: 2015-05-26 16:56:28
--------------------------------------------------------------------------------
Analyzed: Владимир Федорович Вавилов / Лютневая Музыка XVI-XVII Века
--------------------------------------------------------------------------------
DR Peak RMS Duration Track
--------------------------------------------------------------------------------
DR14 -5.19 dB -23.21 dB 3:55 ?-Канцона и Танец
DR8 -5.43 dB -20.29 dB 2:08 ?-Спандольетта
DR13 -4.69 dB -24.18 dB 4:10 ?-Ave Maria
DR13 -7.02 dB -23.98 dB 6:26 ?-Ричеркар
DR13 -7.00 dB -24.13 dB 4:10 ?-Павана и Гальярда
DR14 -6.75 dB -25.72 dB 4:32 ?-Чакона
DR12 -9.05 dB -27.98 dB 3:43 ?-"Зелёные рукава" и Гальярда
DR11 -7.41 dB -24.05 dB 2:13 ?-Турдьон
DR14 -10.24 dB -27.22 dB 3:19 ?-Пастурелла
DR11 -9.74 dB -26.00 dB 5:01 ?-Гавот
--------------------------------------------------------------------------------
Number of tracks: 10
Official DR value: DR12
Samplerate: 48000 Hz
Channels: 2
Bits per sample: 24
Bitrate: 1381 kbps
Codec: FLAC
================================================================================

Back & Disc

[teatrix.ru].t21270.torrent 
Торрент: Зарегистрирован [ 2016-03-20 00:48 ] · 2A502081696CBFF515CC045D949DFF218B31640E

Скачать .torrent

Скачать

17 KB

Статус: проверено
Скачан: 0 раз
Размер: 403 MB
terms.php



Быстрый ответ

Имя:

      
Для отправки сообщений необходимо включить JavaScript
Показать сообщения:    

Текущее время: 05-Дек 01:26

Часовой пояс: UTC + 3


Вы можете начинать темы
Вы можете отвечать на сообщения
Вы не можете редактировать свои сообщения
Вы не можете удалять свои сообщения
Вы не можете голосовать в опросах
Вы не можете прикреплять файлы к сообщениям
Вы можете скачивать файлы