[TR24][OF] Michael Haydn: Complete String Quintets - Salzburger Haydn-Quintett - 2015 (Classical)


Статистика раздачи [Обновить пиров]
Размер:  2.4 GB   |    Зарегистрирован:  8 месяцев 19 дней   |    Скачан:  1 раз

Полного источника не было: 25 дней

 
   
 
 
 

[Цитировать]

Michael Haydn
Complete String Quintets

Salzburger Haydn-Quintett
-Год издания: 2015 | Жанр: Classical | Издатель: CPO Records
Продолжительность: 02:15:58 | Сканы: Sleeve, Digital Booklet- -Salzburger Haydn-Quintett:
Hiro Kurosaki, violin • Frank Stadler, violin
Herbert Lindsberger, viola • David Glidden, viola
Josetxu Obregón, violoncello
Recorded: Palais Kuenburg, Sigmund-Haffner-Gasse 16, Salzburg, December 2013-Контейнер: FLAC (*.flac) | Тип рипа: tracks
Разрядность: 24bit /96kHz | Количество каналов: 2.0
-Треклист
Michael Haydn (1737–1806)
String Quintet in B flat major, Perger 105, MH 412
01.I. Allegro con garbo (6:31)
02. II. Menuetto. Moderato. Trio (3:26)
03. III. Largo (4:30)
04. IV. Allegretto - Variations I-VI (6:43)
05. V. Menuetto. Allegretto. Trio (3:08)
06. VI. Finale. Presto (6:40)
String Quintet in C major, Perger 108, MH 187
07. I. Allegro (6:03)
08. II. Adagio cantabile (7:36)
09. III. Menuetto. Allegretto. Trio (4:55)
10. IV. Rondo. Allegro molto (4:57)
String Quintet in F major, Perger 110, MH 367
11. I. Allegro molto (6:36)
12. III. Menuetto I. Allegretto. Menuetto II (3:04)
13. II. Adagio (7:26)
14. IV. Finale. Rondeau. Presto (5:21)
String Quintet in G major, Perger 109, MH 189
15. I. Allegro (5:53)
16. II. Adagio affettuoso (12:51)
17. III. Menuetto. Allegretto. Trio (4:18)
18. IV. Finale. Presto (4:28)
String Quintet in F major, Perger 112, MH 411
19. I. Allegro aperto (7:17)
20. II. Menuetto. Trio (2:46)
21. III. Andante (4:22)
22. IV. Menuetto. Allegretto. Trio (2:29)
23. V. Un poco allegretto - Variations I-VI (6:54)
24. VI. Finale. Rondo. Vivace assai (5:30)
25. VII. Marcia. Andantino (2:15)

О релизе


The compositions of Joseph Haydn’s lesser known brother, Michael, have long been a special focus for CPO. Following the symphonies, the label are now dedicating themselves to a group of five works for a quintet ensemble consisting of two violins, two violas, and basso. The score is interpreted by the Haydn Quintet of Salzburg and its first violinist Hiro Kurosaki, on historical instruments in the Kuenburg Palais in the heart of Salzburg.
Personnel:
Salzburger Haydn-Quintett:
Hiro Kurosaki, violin (Franz Geissenhof, Wien 1801)
Frank Stadler, violin (Kopie Carlo Bergonzi, Cremona 1723 von Bertrand Bellin, Offenburg 2010)
Herbert Lindsberger, viola (Carlo Antonio Testore, Mailand 1750)
David Glidden, viola (Kopie Antonio Stradivari von Matthieu Besseling, Amsterdam 2005)
Josetxu Obregón, violoncello (Sebastian Klotz, Mittenwald 1740)

ОтчётыДинамический диапазон

foobar2000 1.2.2 / Dynamic Range Meter 1.1.1
log date: 2015-05-23 01:32:08
--------------------------------------------------------------------------------
Analyzed: Salzburger Haydn-Quintett / Michael Haydn: Complete String Quintets
--------------------------------------------------------------------------------
DR Peak RMS Duration Track
--------------------------------------------------------------------------------
DR15 -1.55 dB -20.93 dB 6:31 01-String Quintet in B flat major, Perger 105, MH 412: I. Allegro con garbo
DR12 -5.25 dB -21.63 dB 3:26 02-II. Menuetto. Moderato. Trio
DR13 -5.78 dB -27.39 dB 4:30 03-III. Largo
DR14 -2.65 dB -22.77 dB 6:43 04-IV. Allegretto - Variations I-VI
DR13 -4.30 dB -22.23 dB 3:08 05-V. Menuetto. Allegretto. Trio
DR14 -0.95 dB -21.89 dB 6:40 06-VI. Finale. Presto
DR14 -4.25 dB -22.18 dB 6:03 07-String Quintet in C major, Perger 108, MH 187: I. Allegro
DR16 -5.43 dB -28.33 dB 7:36 08-II. Adagio cantabile
DR13 -5.90 dB -23.66 dB 4:55 09-III. Menuetto. Allegretto. Trio
DR14 -2.67 dB -21.49 dB 4:57 10-IV. Rondo. Allegro molto
DR14 -2.39 dB -21.20 dB 6:36 11-String Quintet in F major, Perger 110, MH 367: I. Allegro molto
DR13 -4.68 dB -23.23 dB 3:04 12-III. Menuetto I. Allegretto. Menuetto II
DR14 -2.73 dB -24.68 dB 7:26 13-II. Adagio
DR14 -4.05 dB -21.98 dB 5:21 14-IV. Finale. Rondeau. Presto
DR13 -4.55 dB -20.95 dB 5:53 15-String Quintet in G major, Perger 109, MH 189: I. Allegro
DR15 -1.95 dB -22.93 dB 12:51 16-II. Adagio affettuoso
DR13 -4.59 dB -21.32 dB 4:18 17-III. Menuetto. Allegretto. Trio
DR13 -2.82 dB -20.71 dB 4:28 18-IV. Finale. Presto
DR13 -4.09 dB -21.96 dB 7:17 19-String Quintet in F major, Perger 112, MH 411: I. Allegro aperto
DR12 -7.77 dB -23.62 dB 2:46 20-II. Menuetto. Trio
DR13 -5.88 dB -23.33 dB 4:22 21-III. Andante
DR13 -3.71 dB -21.51 dB 2:29 22-IV. Menuetto. Allegretto. Trio
DR13 -2.25 dB -22.12 dB 6:54 23-V. Un poco allegretto - Variations I-VI
DR13 -5.27 dB -22.14 dB 5:30 24-VI. Finale. Rondo. Vivace assai
DR12 -2.42 dB -20.28 dB 2:15 25-VII. Marcia. Andantino
--------------------------------------------------------------------------------
Number of tracks: 25
Official DR value: DR13
Samplerate: 96000 Hz
Channels: 2
Bits per sample: 24
Bitrate: 2474 kbps
Codec: FLAC
================================================================================

Скриншот спектра частот

Доп. информация

При скачивании, если необходимо, переименуйте папку, в которой будет находиться альбомБольшая просьба к скачавшим поддерживать раздачу! Помогайте другим, ведь вам тоже может понадобиться помощь!Не забываем говорить "Спасибо"!Комментарии приветствуются!
[teatrix.ru].t21271.torrent 
Торрент: Зарегистрирован [ 2016-03-20 00:48 ] · 0C69CF9D78BEB2D9B29D8B2D4B30E3EDA6163BD1

Скачать .torrent

Скачать

15 KB

Статус: проверено
Скачан: 1 раз
Размер: 2.4 GB
terms.php



Быстрый ответ

Имя:

      
Для отправки сообщений необходимо включить JavaScript
Показать сообщения:    

Текущее время: 08-Дек 07:08

Часовой пояс: UTC + 3


Вы можете начинать темы
Вы можете отвечать на сообщения
Вы не можете редактировать свои сообщения
Вы не можете удалять свои сообщения
Вы не можете голосовать в опросах
Вы не можете прикреплять файлы к сообщениям
Вы можете скачивать файлы