[TR24][OF] P. Tchaikovsky/П.И. Чайковский - Violin Concerto, Op. 35; Melodie; Danse russe from Swan Lake, Op. 20 (Act III) - Joshua Bell, Berliner Philharmoniker, Michael Tilson Thomas - 2005/2013 (Classical)

DL-List and Torrent activity [Update пиров]
Size:  1.61 GB   |    Registered:  7 months 6 days   |    Completed:  0 times

Seeder not seen: Never



P. Tchaikovsky
Violin Concerto · Melodie · Danse russe from Swan Lake
Joshua Bell · Berliner Philharmoniker · Michael Tilson Thomas
- Год издания/переиздания диска: 2005/2013
Жанр: Classical | Издатель: Sony Classical
Продолжительность: 00:51:27 | Сканы: Sleeve, Digital Booklet- -
Pyotr Ilyich Tchaikovsky (1840-1893)
Concerto in D Major for Violin and Orchestra, Op. 35
01.I. Allegro moderato (19:39)
02. II. Canzonetta. Andante (6:34)
03. III. Finale. Allegro vivacissimo (10:56)
Souvenir d’un lieu cher (Memory of a dear place), Op. 42
04. I. Méditation in D-Minor (9:46)
Swan Lake, Op. 20
05. Danse russe (Act III) (4:33)-Контейнер: FLAC (*.flac) | Тип рипа: tracks
Разрядность: 24bit /176.4kHz | Количество каналов: 2.0
-О релизе
"A true artist whose music feeds both your brain and your heart." — Newsweek
"The American violinist with movie-star good looks has emerged as one of the finest musicians of his generation." — The Washington Post
"Bell's tone is a thing of rare beauty..." — The Seattle Times
Grammy Award winning violinist Joshua Bell takes a fresh look at the Tchaikovsky Violin Concerto on his new live recording featuring Michael Tilson Thomas leading the Berlin Philharmonic.
Joshua Bell's sizzling career continues to rise. His youthful exuberance and magnetic presence have earned him worldwide acclaim on and off the stage with an audience reach that goes far beyond the core classical listener (People Magazine named him one of the "50 Most Beautiful People.")
Bell's previous release, Romance of the Violin, hit No. 1 on Billboard's Traditional Classical chart and stayed there for 12 weeks, remaining in the top 10 for over a year following its original release. In December 2004, Romance of the Violin was named No. 1 Classical Album of the Year by Billboard, and Bell was cited as No. 1 Classical Artist of the Year.
Joshua Bell, violin
Berliner Philharmoniker
Michael Tilson Thomas, conductor

ОтчётыДинамический диапазон

foobar2000 1.2.2 / Dynamic Range Meter 1.1.1
log date: 2015-05-27 11:35:41
Analyzed: Joshua Bell, Berlin Philharmonic Orchestra, Michael Tilson Thomas / Tchaikovsky: Violin Concerto, Op. 35 - Mélodie - Danse russe from Swan Lake, Op. 20 (Act III)
DR Peak RMS Duration Track
DR17 0.00 dB -24.11 dB 19:39 ?-Concerto in D Major for Violin and Orchestra, Op. 35 - I. Allegro moderato
DR15 -13.30 dB -33.50 dB 6:34 ?-Concerto in D Major for Violin and Orchestra, Op. 35 - II. Canzonetta. Andante
DR17 0.00 dB -25.14 dB 10:56 ?-Concerto in D Major for Violin and Orchestra, Op. 35 - III. Finale. Allegro vivacissimo
DR16 -6.30 dB -29.30 dB 9:46 ?-Méditation in D-Minor, Op. 42, No. 1
DR17 0.00 dB -24.35 dB 4:33 ?-Danse russe from Swan Lake, Op. 20 (Act III)
Number of tracks: 5
Official DR value: DR17
Samplerate: 176400 Hz
Channels: 2
Bits per sample: 24
Bitrate: 4449 kbps
Codec: FLAC

Скриншот спектра частот

Доп. информация

При скачивании, если необходимо, переименуйте папку, в которой будет находиться альбомБольшая просьба к скачавшим поддерживать раздачу! Помогайте другим, ведь вам тоже может понадобиться помощь!Не забываем говорить "Спасибо"!Комментарии приветствуются!
Torrent: Registered [ 2016-03-20 00:48 ] · 94490105C14DFBEB6B7D17A005C3DC3A6DBA3C17

Download .torrent


17 KB

Status: checked
Completed: 0 times
Size: 1.61 GB

Quick Reply


Heads necessary to send messages to enable JavaScript
Display posts:    

Current time is: 26-Oct 10:37

All times are UTC + 3

You can post new topics in this forum
You can reply to topics in this forum
You cannot edit your posts in this forum
You cannot delete your posts in this forum
You cannot vote in polls in this forum
You cannot attach files in this forum
You can download files in this forum