(Zarzuela) Arrieta - Marina (Bayo, Kraus, Pons, Baquerizo - Orquesta Sinfonica de Tenerife, Perez) - 2000, APE (image+.cue) lossless


 

[Цитировать]

Emilio Arrieta - Marina
Жанр: Zarzuela
Страна-производитель диска: EU
Год издания диска: 2000
Издатель (лейбл): Naïve
Номер по каталогу: 4845
Аудиокодек: APE
Тип рипа: image+.cue
Битрейт аудио: lossless
Продолжительность: Total 01'05'27
Источник: скачано с
Наличие сканов в содержимом раздачи: да
Треклист:

CD1

1. Act I: Preludio
2. Escena y Aria de Marina
3. Escena. Dúo de Marina y Pascual
4. Recitado. Coro de Pescadores y Aria de Jorge
5. Escena. Jorge, Pascual, Roque, Marina y Coro
6. Cuarteto. Marina, Jorge, Pascual y Roque
7. Escena y dúo de Jorge y Roqu e. Final I

CD2

1. Act II: Preludio y Coro de introducción/Stretta
2. Coro/Final II
3. Act III: Preludio
4. Escena y Brindis de Jorge y Coro
5. Escena y Terceto de Marina, Jorge y Roque
6. Escena. Seguidillas de Roque y Coro
7. Tango. Roque y Coro
8. Dúo entre Marina y Jorge
9. Escena y Rondó de Marina. Finale III
Исполнители:
Emilio Arrieta - Marina
Zarzuela in 3 acts
Maria Bayo
Alfredo Kraus
Juan Pons
Enrique Baquerizo
Juan Jesus Rodriguez
Orquesta Sinfonica de Tenerife
Victor Pablo Pérez

Содержание индексной карты (.CUE)

CD1

REM ACCURATERIPID 000fd7e9-005b7af2-570bf107
PERFORMER "Emilio Arrieta"
TITLE "Marina, CD1"
FILE "Arrieta - Marina, Pérez [Kraus, Bayo, Pons] CD1].ape" WAVE
TRACK 01 AUDIO
TITLE "Acto I - Preldio. Coro de Pescadores y Barcarola de Marina"
INDEX 01 00:00:00
TRACK 02 AUDIO
TITLE "Acto I - Escena y Aria de Marina"
INDEX 01 11:51:60
TRACK 03 AUDIO
TITLE "Acto I - Escena. Dúo de Marina y Pascual"
INDEX 01 20:45:15
TRACK 04 AUDIO
TITLE "Acto I - Recitado. Coro de Pescadores y Aria de Jorge"
INDEX 01 27:16:35
TRACK 05 AUDIO
TITLE "Acto I - Escena. Jorge, Pascual, Roque, Marina y Coro"
INDEX 01 35:23:60
TRACK 06 AUDIO
TITLE "Acto I - Cuarteto. Marina, Jorge, Pascual y Roque"
INDEX 01 38:53:45
TRACK 07 AUDIO
TITLE "Acto I - Escena y dúo de Jorge y Roque. Final I"
INDEX 01 45:35:35

CD2

PERFORMER "Emilio Arrieta"
TITLE "Marina, CD2"
FILE "Arrieta - Marina, Pérez [Kraus, Bayo, Pons] CD2.ape" WAVE
TRACK 01 AUDIO
TITLE "Acto 2 - Preludio y Coro de introducción/Stretta"
INDEX 01 00:00:00
TRACK 02 AUDIO
TITLE "Acto 2 - Coro/Final II"
INDEX 01 15:02:40
TRACK 03 AUDIO
TITLE "Acto 3 - Preludio"
INDEX 01 23:11:30
TRACK 04 AUDIO
TITLE "Acto 3 - Escena y Brindis de Jorge y Coro"
INDEX 01 29:01:50
TRACK 05 AUDIO
TITLE "Acto 3 - Escena y Terceto de Marina, Jorge y Roque"
INDEX 01 34:58:40
TRACK 06 AUDIO
TITLE "Acto 3 - Escena. Seguidillas de Roque y Coro"
INDEX 01 47:18:50
TRACK 07 AUDIO
TITLE "Acto 3 - Tango. Roque y Coro"
INDEX 01 51:31:05
TRACK 08 AUDIO
TITLE "Acto 3 - Dúo entre Marina y Jorge"
INDEX 01 57:30:00
TRACK 09 AUDIO
TITLE "Acto 3 - Escena y Rondó de Marina. Finale III"
INDEX 01 61:00:40

Лог проверки качества

CD1

[CUETools log; Date: 27-5-2015 15:06:07; Version: 2.1.4]
[AccurateRip ID: 000fd7e9-005b7af2-570bf107] found.
Track [ CRC | V2 ] Status
01 [93da3168|0f7d6deb] (0+0/4) No match
02 [5278603f|865ce334] (0+0/4) No match
03 [0bb81d59|07da239a] (0+0/4) No match
04 [8814fa7d|5e272248] (0+0/4) No match
05 [f96ef9bd|e779fe08] (0+0/4) No match
06 [da3260be|3e9f5cfb] (0+0/4) No match
07 [f22e04d0|b8f02443] (0+0/4) No match
Offsetted by -561:
01 [478173ce] (2/4) Accurately ripped
02 [69464319] (2/4) Accurately ripped
03 [91400ab8] (2/4) Accurately ripped
04 [e99ee1ca] (2/4) Accurately ripped
05 [0232b3a1] (2/4) Accurately ripped
06 [a5c22cad] (2/4) Accurately ripped
07 [7b2cfdaf] (2/4) Accurately ripped
Offsetted by 103:
01 [ba82e63e] (0/4) No match (V2 was not tested)
02 [f4d7d2a9] (0/4) No match (V2 was not tested)
03 [e8f9652f] (0/4) No match (V2 was not tested)
04 [2a112147] (0/4) No match (V2 was not tested)
05 [150e4f25] (0/4) No match (V2 was not tested)
06 [cd603acd] (0/4) No match (V2 was not tested)
07 [907896c7] (0/4) No match (V2 was not tested)
Track Peak [ CRC32 ] [W/O NULL]
-- 98,8 [861DE8D1] [73FCD682]
01 98,8 [6A7BB7FC] [2DB4CA52]
02 98,3 [342696DF] [9D82739E]
03 96,1 [B7BC7BD9] [C4C05124]
04 98,8 [097B7FED] [9F262794]
05 81,2 [03266968] [2DFE2898]
06 97,4 [F817C40F] [39F3F3AE]
07 98,6 [4A6F1B80] [290EE8DB]

CD2

[CUETools log; Date: 27-5-2015 15:06:34; Version: 2.1.4]
[AccurateRip ID: 001a68a8-00b90506-6d0f3d09] found.
Track [ CRC | V2 ] Status
01 [fb6aa6a1|0bf3a24b] (0+0/4) No match
02 [40c96f8f|482ea81a] (0+0/4) No match
03 [dab4636f|3579cb2f] (0+0/4) No match
04 [38374a06|f87be8a4] (0+0/4) No match
05 [ff9662fc|d952b74a] (0+0/4) No match
06 [ebd9301b|ea48c29b] (0+0/4) No match
07 [cad0c763|c86a6fef] (0+0/4) No match
08 [bc8477c8|6fb23eaf] (0+0/4) No match
09 [11b2aefc|05c8cc84] (0+0/4) No match
Offsetted by -561:
01 [24e55b0d] (2/4) Accurately ripped
02 [8bc3be14] (2/4) Accurately ripped
03 [e660f8a8] (2/4) Accurately ripped
04 [ab37e9dc] (2/4) Accurately ripped
05 [af13d770] (2/4) Accurately ripped
06 [2b55902b] (2/4) Accurately ripped
07 [b775901f] (2/4) Accurately ripped
08 [92e54ccc] (2/4) Accurately ripped
09 [12970b6e] (2/4) Accurately ripped
Offsetted by 103:
01 [aa5508ed] (0/4) No match (V2 was not tested)
02 [6cf97b9c] (0/4) No match (V2 was not tested)
03 [fe6fbd50] (0/4) No match (V2 was not tested)
04 [d33e79cc] (0/4) No match (V2 was not tested)
05 [e9681490] (0/4) No match (V2 was not tested)
06 [c5b9aeab] (0/4) No match (V2 was not tested)
07 [42bfc476] (0/4) No match (V2 was not tested)
08 [fca5eef5] (0/4) No match (V2 was not tested)
09 [34abe4be] (0/4) No match (V2 was not tested)
Track Peak [ CRC32 ] [W/O NULL]
-- 98,8 [2B06D67C] [1643C955]
01 98,8 [50F0676B] [B04FF142]
02 98,8 [F93EC53A] [7A5A1D20]
03 98,2 [E14D62B2] [658882CD]
04 98,7 [E984C36B] [C89B73B6]
05 96,7 [284E5C1F] [365F2E1C]
06 95,7 [D5F754A7] [7F2F89E9]
07 98,0 [66E7AD88] [E00A3CEA]
08 96,4 [3E73C4A3] [C5814B30]
09 96,6 [0722C9EF] [C5C90BB7]
Доп. информация:
The zarzuela grande Marina is set on the shores of the sea, by the temperamental Mediterranean, and concerns the life and loves of fishermen, sailors, and people making their living off the sea.
It was composed by Emilio Arrieta and set a text by the author Francisco Camprodón.
Everywhere the score reflects the composer's love of the sea and his affinity with its emotional nuances and pulsating rhythms.
Marina became one of the most popular and frequently performed of all of the nineteenth century musical dramas of Spain.
In this work, Arrieta greatly expanded the dramatic forms of the traditional Spanish zarzuela, creating a Spanish comic opera with a poetic vision.
Elements such as orchestral timbres, instrumental combinations, and his sense of theater work together for the sake of the dramatic whole.
Trained in Italy, Arrieta's roots are deep in the traditions of Italian opera, as manifested in the works of the composers Bellini, Donizetti, and Verdi.
This helped influence his attitude toward text setting, which seeks to combine textual and musical elements for greater expressivity.
Native genres and forms such as the seguidillas and habaneras help create a truly Spanish musical language in Arrieta's style, without becoming nationalistic.
Marina premiered at the Teatro del Circo on September 21, 1855.
It had an extremely lukewarm reception by both critics and audience, despite its sensuous, lively, spontaneous melodies, rich orchestrations, and sumptuous harmonies.
Although a relative failure in Madrid, it was popular in other parts of Spain, and continued to be performed during subsequent years.



Показать сообщения:    

Текущее время: 08-Дек 03:15

Часовой пояс: UTC + 3


Вы не можете начинать темы
Вы не можете отвечать на сообщения
Вы не можете редактировать свои сообщения
Вы не можете удалять свои сообщения
Вы не можете голосовать в опросах
Вы не можете прикреплять файлы к сообщениям
Вы не можете скачивать файлы