(Oratorio) Beethoven • Fantasia in C minor, Op. 80 (Brendel - Stutgarter Lehrergesangverein) Bottcher • Christus am Ölberge, Op. 85 (Rebmann, Bartel, Messthaler - Stutgarter Philharmoniker, Bloser) - 1999, APE (image+.cue) lossless


Статистика раздачи [Обновить пиров]
Размер:  308 MB   |    Зарегистрирован:  8 месяцев 14 дней   |    Скачан:  0 раз

Полного источника не было: Никогда

 
   
 
 
 

[Цитировать]

Beethoven • Fantasia in C minor, Op. 80 • Christus am Ölberge, Op. 85
Жанр: Oratorio
Страна-производитель диска: EU
Год издания диска: 1999
Издатель (лейбл): Vanguard
Номер по каталогу: 08 9272 71
Дата записи: 1995
Аудиокодек: APE
Тип рипа: image+.cue
Битрейт аудио: lossless
Продолжительность: 75'03
Источник: собственный рип
Наличие сканов в содержимом раздачи: да
Треклист/Исполнители:
Chorphantasie for Piano, Chorus and Orchestra, Op. 80
1. Fantasia
Alfred Brendel, Piano
Stuttgarter Lehrergesangverein
Anni Kretschmar, Soprano 1; Barbara Lange, Soprano 2
Hanna Aurbacher, Alto; Manfred Gerbert, Tenor 1
Karl Stanze, Tenor 2; August Messthaler, Bass
Wilfried Böttcher, Conductor
Christus am Ölberg, Oratorio for Choir, Soloists & Orchestra, Op. 85
2. Recitativo y Aria 'Jesus'
3. Recitativo y Duetto 'Seraph', Chor der Engel
4. Recitativo y Duetto 'Seraph/Jesus'
5. Recitativo y Duetto 'Jesus und Chor der Krieger'
6. Recitativo y Duetto 'Jesus und Chor der Jünger'
7. Recitativo y Duetto 'Jesus-Petrus' Chor der Jünger/Chor der Krieger'
Choir of the youngsters, Choir of the soldiers
Seraph: Lieselotte Rebmann, Soprano
Jesus: Reinhold Bartel, Tenor
Petrus: August Messthaler, Bass
Stuttgarter Philharmoniker, ]osef Bloser

Лог создания рипа

Exact Audio Copy V1.0 beta 3 from 29. August 2011
EAC extraction logfile from 26. May 2015, 22:50
Beethoven / Chorphantasie & Oratorium "Christus am Ölberg"
Used drive : TSSTcorpCDDVDW SE-208AB Adapter: 1 ID: 0
Read mode : Secure
Utilize accurate stream : Yes
Defeat audio cache : Yes
Make use of C2 pointers : No
Read offset correction : 6
Overread into Lead-In and Lead-Out : No
Fill up missing offset samples with silence : Yes
Delete leading and trailing silent blocks : No
Null samples used in CRC calculations : Yes
Used interface : Native Win32 interface for Win NT & 2000
Used output format : Monkey's Audio Lossless Encoder
Selected bitrate : High Lossless Compression
Quality : High
Add ID3 tag : Yes
Command line compressor : C:\Program Files (x86)\Exact Audio Copy\MAC\MAC.exe
TOC of the extracted CD
Track | Start | Length | Start sector | End sector
---------------------------------------------------------
1 | 0:00.38 | 20:33.00 | 38 | 92512
2 | 20:33.38 | 15:15.00 | 92513 | 161137
3 | 35:48.38 | 9:56.00 | 161138 | 205837
4 | 45:44.38 | 7:04.00 | 205838 | 237637
5 | 52:48.38 | 3:42.00 | 237638 | 254287
6 | 56:30.38 | 4:18.00 | 254288 | 273637
7 | 60:48.38 | 14:15.15 | 273638 | 337777
Range status and errors
Selected range
Filename D:\EAC\Beethoven - Chorphantasie & Oratorium ''Christus am Ölberg''.wav
Peak level 88.4 %
Extraction speed 2.3 X
Range quality 100.0 %
Test CRC D62A0852
Copy CRC D62A0852
Copy OK
No errors occurred
AccurateRip summary
Track 1 accurately ripped (confidence 2) [FE88936C] (AR v1)
Track 2 accurately ripped (confidence 2) [54FCAB1D] (AR v1)
Track 3 accurately ripped (confidence 2) [EA7CD2E1] (AR v1)
Track 4 accurately ripped (confidence 2) [E91F27FE] (AR v1)
Track 5 accurately ripped (confidence 2) [AD1B9136] (AR v1)
Track 6 accurately ripped (confidence 2) [EB3985D7] (AR v1)
Track 7 accurately ripped (confidence 2) [1D9BA2A9] (AR v1)
All tracks accurately ripped
End of status report
---- CUETools DB Plugin V2.1.3
[CTDB TOCID: H14Q2ofaA2jfnP4qLSwze04q2IU-] disk not present in database, Submit result: discs with pregaps not supported in this protocol version
==== Log checksum 6D9DE4DC4430F85C3FAD66F2F227012DF0941210CEAC22E41B02300783F1C620 ====

Содержание индексной карты (.CUE)

REM GENRE Oratorio
REM DATE 1995
REM DISCID 52119707
REM COMMENT "ExactAudioCopy v1.0b3"
PERFORMER "Beethoven"
TITLE "Chorphantasie & Oratorium 'Christus am Ölberg'"
FILE "Beethoven - Chorphantasie & Oratorium ''Christus am Ölberg''.ape" WAVE
TRACK 01 AUDIO
TITLE "Fantasia for Piano, Chorus and Orchestra, Op. 80"
PERFORMER "Stuttgart Philharmoniker, Josef Bloser, Alfred Brendel"
INDEX 00 00:00:00
INDEX 01 00:00:38
TRACK 02 AUDIO
TITLE "Christus am Ölberg, Op. 85: Recitativo y Aria 'Jesus'"
PERFORMER "Beethoven"
INDEX 00 20:24:25
INDEX 01 20:33:38
TRACK 03 AUDIO
TITLE "Christus am Ölberg, Op. 85: Recitativo y Duetto 'Seraph', Chor der Engel"
PERFORMER "Beethoven"
INDEX 00 35:43:08
INDEX 01 35:48:38
TRACK 04 AUDIO
TITLE "Christus am Ölberg, Op. 85: Recitativo y Duetto 'Seraph/Jesus'"
PERFORMER "Beethoven"
INDEX 00 45:38:03
INDEX 01 45:44:38
TRACK 05 AUDIO
TITLE "Christus am Ölberg, Op. 85: Recitativo y Duetto 'Jesus und Chor der Krieger'"
PERFORMER "Beethoven"
INDEX 00 52:43:55
INDEX 01 52:48:38
TRACK 06 AUDIO
TITLE "Christus am Ölberg, Op. 85: Recitativo y Duetto 'Jesus und Chor der Jünger'"
PERFORMER "Beethoven"
INDEX 00 56:25:10
INDEX 01 56:30:38
TRACK 07 AUDIO
TITLE "Christus am Ölberg, Op. 85: Recitativo y Duetto 'Jesus-Petrus' Chor der Jünge..."
PERFORMER "Beethoven"
INDEX 00 60:42:58
INDEX 01 60:48:38
[teatrix.ru].t21278.torrent 
Торрент: Зарегистрирован [ 2016-03-20 00:48 ] · 71AC431A98DEDD45B456FE950C42F4F15F3A1251

Скачать .torrent

Скачать

13 KB

Статус: проверено
Скачан: 0 раз
Размер: 308 MB
terms.php



Быстрый ответ

Имя:

      
Для отправки сообщений необходимо включить JavaScript
Показать сообщения:    

Текущее время: 03-Дек 22:46

Часовой пояс: UTC + 3


Вы можете начинать темы
Вы можете отвечать на сообщения
Вы не можете редактировать свои сообщения
Вы не можете удалять свои сообщения
Вы не можете голосовать в опросах
Вы не можете прикреплять файлы к сообщениям
Вы можете скачивать файлы