(Classical) Johan Helmich Roman - Twelve Flute Sonatas - Verena Fischer, Klaus-Dieter Brandt, Leon Berben - 2008, FLAC (image+.cue) lossless


 

[Цитировать]

Johan Helmich Roman - Twelve Flute Sonatas - Verena Fischer, Klaus-Dieter Brandt, Léon Berben
Жанр: Classical
Год издания диска: 2008
Издатель (лейбл): Naxos
Номер по каталогу: 8.570492-93
Дата записи: 2007, 2008
Аудиокодек: FLAC
Тип рипа: image+.cue
Битрейт аудио: lossless
Продолжительность: 2:25:53
Источник: собственный рип
Наличие сканов в содержимом раздачи: да
Треклист:
Johan Helmich Roman (1694-1758)
Twelve Flute Sonatas

CD1

[1]-[5] Sonata No. 1 in G major
[6]-[9] Sonata No. 2 in D major
[10]-[14] Sonata No. 3 in C minor
[15]-[20] Sonata No. 4 in G major
[21]-[27] Sonata No. 5 in E minor
[28]-[32] Sonata No. 6 in B minor

CD2

[1]-[4] Sonata No. 7 in G major
[5]-[9] Sonata No. 8 in A major
[10]-[14] Sonata No. 9 in C major
[15]-[19] Sonata No. 10 in E minor
[20]-[23] Sonata No. 11 in G minor
[24]-[27] Sonata No. 12 in D major
Исполнители:
Verena Fischer transverse flute
Klaus-Dieter Brandt baroque cello
Léon Berben harpsichord

Лог создания рипа: CD1

Exact Audio Copy V1.0 beta 3 from 29. August 2011
EAC extraction logfile from 3. May 2015, 15:20
Verena Fischer, Klaus-Dieter Brandt, Leon Berben / Roman - Twelve Flute Sonatas - CD1
Used drive : HL-DT-STDVDRAM GU70N Adapter: 0 ID: 0
Read mode : Secure
Utilize accurate stream : Yes
Defeat audio cache : Yes
Make use of C2 pointers : No
Read offset correction : 48
Overread into Lead-In and Lead-Out : No
Fill up missing offset samples with silence : Yes
Delete leading and trailing silent blocks : No
Null samples used in CRC calculations : Yes
Used interface : Native Win32 interface for Win NT & 2000
Used output format : User Defined Encoder
Selected bitrate : 128 kBit/s
Quality : High
Add ID3 tag : No
Command line compressor : C:\Program Files (x86)\Exact Audio Copy\Flac\flac.exe
Additional command line options : -V -8 -T "Date=%year%" -T "Genre=%genre%" %source%
TOC of the extracted CD
Track | Start | Length | Start sector | End sector
---------------------------------------------------------
1 | 0:00.00 | 4:43.24 | 0 | 21248
2 | 4:43.24 | 2:53.37 | 21249 | 34260
3 | 7:36.61 | 1:51.08 | 34261 | 42593
4 | 9:27.69 | 3:12.07 | 42594 | 57000
5 | 12:40.01 | 2:41.61 | 57001 | 69136
6 | 15:21.62 | 4:00.29 | 69137 | 87165
7 | 19:22.16 | 3:20.46 | 87166 | 102211
8 | 22:42.62 | 1:55.64 | 102212 | 110900
9 | 24:38.51 | 0:36.38 | 110901 | 113638
10 | 25:15.14 | 2:21.07 | 113639 | 124220
11 | 27:36.21 | 2:45.11 | 124221 | 136606
12 | 30:21.32 | 1:52.35 | 136607 | 145041
13 | 32:13.67 | 2:08.37 | 145042 | 154678
14 | 34:22.29 | 2:01.54 | 154679 | 163807
15 | 36:24.08 | 4:31.33 | 163808 | 184165
16 | 40:55.41 | 3:03.10 | 184166 | 197900
17 | 43:58.51 | 2:06.18 | 197901 | 207368
18 | 46:04.69 | 1:00.25 | 207369 | 211893
19 | 47:05.19 | 2:04.41 | 211894 | 221234
20 | 49:09.60 | 0:52.66 | 221235 | 225200
21 | 50:02.51 | 2:19.02 | 225201 | 235627
22 | 52:21.53 | 3:17.18 | 235628 | 250420
23 | 55:38.71 | 2:34.08 | 250421 | 261978
24 | 58:13.04 | 2:00.38 | 261979 | 271016
25 | 60:13.42 | 0:51.48 | 271017 | 274889
26 | 61:05.15 | 1:29.44 | 274890 | 281608
27 | 62:34.59 | 0:39.41 | 281609 | 284574
28 | 63:14.25 | 4:30.46 | 284575 | 304870
29 | 67:44.71 | 2:33.57 | 304871 | 316402
30 | 70:18.53 | 2:20.47 | 316403 | 326949
31 | 72:39.25 | 1:28.72 | 326950 | 333621
32 | 74:08.22 | 1:00.53 | 333622 | 338174
Range status and errors
Selected range
Filename C:\temp\Naxos_8.570492-93 - Roman - Twelve Flute Sonatas\CD1\Roman - Twelve Flute Sonatas - CD1.wav
Peak level 98.8 %
Extraction speed 2.3 X
Range quality 100.0 %
Test CRC A207F720
Copy CRC A207F720
Copy OK
No errors occurred
AccurateRip summary
Track 1 accurately ripped (confidence 1) [0BE282C0] (AR v1)
Track 2 accurately ripped (confidence 1) [6D9736BF] (AR v1)
Track 3 accurately ripped (confidence 1) [0BC6E304] (AR v1)
Track 4 accurately ripped (confidence 1) [DE8FA806] (AR v1)
Track 5 accurately ripped (confidence 1) [4F25DF95] (AR v1)
Track 6 accurately ripped (confidence 1) [8C31A681] (AR v1)
Track 7 accurately ripped (confidence 1) [3AC8B7F6] (AR v1)
Track 8 accurately ripped (confidence 1) [C21A7C80] (AR v1)
Track 9 accurately ripped (confidence 1) [608EC62C] (AR v1)
Track 10 accurately ripped (confidence 1) [E1295B04] (AR v1)
Track 11 accurately ripped (confidence 1) [7BE4194F] (AR v1)
Track 12 accurately ripped (confidence 1) [2A1E3542] (AR v1)
Track 13 accurately ripped (confidence 1) [0BE910CE] (AR v1)
Track 14 accurately ripped (confidence 1) [175F7A43] (AR v1)
Track 15 accurately ripped (confidence 1) [8521373C] (AR v1)
Track 16 accurately ripped (confidence 1) [A5C9C984] (AR v1)
Track 17 accurately ripped (confidence 1) [7FA2DC71] (AR v1)
Track 18 accurately ripped (confidence 1) [DDB3B638] (AR v1)
Track 19 accurately ripped (confidence 1) [5E2B216D] (AR v1)
Track 20 accurately ripped (confidence 1) [F5B6DFC5] (AR v1)
Track 21 accurately ripped (confidence 1) [C7AFED03] (AR v1)
Track 22 accurately ripped (confidence 1) [BED60653] (AR v1)
Track 23 accurately ripped (confidence 1) [63272A6D] (AR v1)
Track 24 accurately ripped (confidence 1) [B2BC220A] (AR v1)
Track 25 accurately ripped (confidence 1) [6740713D] (AR v1)
Track 26 accurately ripped (confidence 1) [8704D10C] (AR v1)
Track 27 accurately ripped (confidence 1) [70EE1E8D] (AR v1)
Track 28 accurately ripped (confidence 1) [DDC10E28] (AR v1)
Track 29 accurately ripped (confidence 1) [FE0BA1F7] (AR v1)
Track 30 accurately ripped (confidence 1) [9185C0E7] (AR v1)
Track 31 accurately ripped (confidence 1) [62B922B2] (AR v1)
Track 32 accurately ripped (confidence 1) [C894256C] (AR v1)
All tracks accurately ripped
End of status report
==== Log checksum ADCF0BDB15636CADB7FC58760F71421E21F13B52669443018EB12E93F8074DDB ====

Лог создания рипа: CD2

Exact Audio Copy V1.0 beta 3 from 29. August 2011
EAC extraction logfile from 3. May 2015, 16:49
Verena Fischer, Klaus-Dieter Brandt, Leon Berben / Roman - Twelve Flute Sonatas - CD2
Used drive : HL-DT-STDVDRAM GU70N Adapter: 0 ID: 0
Read mode : Secure
Utilize accurate stream : Yes
Defeat audio cache : Yes
Make use of C2 pointers : No
Read offset correction : 48
Overread into Lead-In and Lead-Out : No
Fill up missing offset samples with silence : Yes
Delete leading and trailing silent blocks : No
Null samples used in CRC calculations : Yes
Used interface : Native Win32 interface for Win NT & 2000
Used output format : User Defined Encoder
Selected bitrate : 128 kBit/s
Quality : High
Add ID3 tag : No
Command line compressor : C:\Program Files (x86)\Exact Audio Copy\Flac\flac.exe
Additional command line options : -V -8 -T "Date=%year%" -T "Genre=%genre%" %source%
TOC of the extracted CD
Track | Start | Length | Start sector | End sector
---------------------------------------------------------
1 | 0:00.00 | 3:48.64 | 0 | 17163
2 | 3:48.64 | 4:20.59 | 17164 | 36722
3 | 8:09.48 | 1:20.53 | 36723 | 42775
4 | 9:30.26 | 1:46.28 | 42776 | 50753
5 | 11:16.54 | 3:25.10 | 50754 | 66138
6 | 14:41.64 | 3:15.07 | 66139 | 80770
7 | 17:56.71 | 2:29.61 | 80771 | 92006
8 | 20:26.57 | 2:42.66 | 92007 | 104222
9 | 23:09.48 | 1:38.45 | 104223 | 111617
10 | 24:48.18 | 4:08.43 | 111618 | 130260
11 | 28:56.61 | 3:56.06 | 130261 | 147966
12 | 32:52.67 | 1:31.67 | 147967 | 154858
13 | 34:24.59 | 2:18.63 | 154859 | 165271
14 | 36:43.47 | 1:18.67 | 165272 | 171188
15 | 38:02.39 | 3:08.66 | 171189 | 185354
16 | 41:11.30 | 4:11.58 | 185355 | 204237
17 | 45:23.13 | 3:31.36 | 204238 | 220098
18 | 48:54.49 | 2:43.22 | 220099 | 232345
19 | 51:37.71 | 0:59.71 | 232346 | 236841
20 | 52:37.67 | 2:36.63 | 236842 | 248604
21 | 55:14.55 | 3:06.25 | 248605 | 262579
22 | 58:21.05 | 1:27.16 | 262580 | 269120
23 | 59:48.21 | 1:27.37 | 269121 | 275682
24 | 61:15.58 | 2:03.67 | 275683 | 284974
25 | 63:19.50 | 2:51.38 | 284975 | 297837
26 | 66:11.13 | 1:55.56 | 297838 | 306518
27 | 68:06.69 | 2:33.06 | 306519 | 317999
Range status and errors
Selected range
Filename C:\temp\Naxos_8.570492-93 - Roman - Twelve Flute Sonatas\CD2\Roman - Twelve Flute Sonatas - CD2.wav
Peak level 96.5 %
Extraction speed 2.2 X
Range quality 99.9 %
Test CRC 8A7CFE8E
Copy CRC 8A7CFE8E
Copy OK
No errors occurred
AccurateRip summary
Track 1 accurately ripped (confidence 1) [85F61D53] (AR v1)
Track 2 accurately ripped (confidence 1) [D0DFE265] (AR v1)
Track 3 accurately ripped (confidence 1) [60FF75DE] (AR v1)
Track 4 accurately ripped (confidence 1) [966867FA] (AR v1)
Track 5 accurately ripped (confidence 1) [39D3FDB0] (AR v1)
Track 6 accurately ripped (confidence 1) [6B0848F9] (AR v1)
Track 7 accurately ripped (confidence 1) [FA4ECD3B] (AR v1)
Track 8 accurately ripped (confidence 1) [50FBB731] (AR v1)
Track 9 accurately ripped (confidence 1) [8190A467] (AR v1)
Track 10 accurately ripped (confidence 1) [655ABCB4] (AR v1)
Track 11 accurately ripped (confidence 1) [544D4843] (AR v1)
Track 12 accurately ripped (confidence 1) [F739E98A] (AR v1)
Track 13 accurately ripped (confidence 1) [1DB72199] (AR v1)
Track 14 accurately ripped (confidence 1) [2C28CCA8] (AR v1)
Track 15 accurately ripped (confidence 1) [4C37DCCF] (AR v1)
Track 16 accurately ripped (confidence 1) [76081B21] (AR v1)
Track 17 accurately ripped (confidence 1) [BB8D00C3] (AR v1)
Track 18 accurately ripped (confidence 1) [557F89B3] (AR v1)
Track 19 accurately ripped (confidence 1) [A97357D9] (AR v1)
Track 20 accurately ripped (confidence 1) [EB1A6FED] (AR v1)
Track 21 accurately ripped (confidence 1) [09391D66] (AR v1)
Track 22 accurately ripped (confidence 1) [70254FFF] (AR v1)
Track 23 accurately ripped (confidence 1) [28F04787] (AR v1)
Track 24 accurately ripped (confidence 1) [A209B889] (AR v1)
Track 25 accurately ripped (confidence 1) [815E86F6] (AR v1)
Track 26 accurately ripped (confidence 1) [494CF6B3] (AR v1)
Track 27 accurately ripped (confidence 1) [C069822E] (AR v1)
All tracks accurately ripped
End of status report
==== Log checksum 5E1CF0498DCD0DD5C123C47CAE34EC23620A3E85B67386392017EDF0A30B0123 ====



Показать сообщения:    

Текущее время: 04-Дек 09:09

Часовой пояс: UTC + 3


Вы не можете начинать темы
Вы не можете отвечать на сообщения
Вы не можете редактировать свои сообщения
Вы не можете удалять свои сообщения
Вы не можете голосовать в опросах
Вы не можете прикреплять файлы к сообщениям
Вы не можете скачивать файлы