Уважаемый мистер Гейбл / Dear Mr. Gable (Николас Ноксон / Nicolas Noxon) [1968, документальный, биография, VHSRip]


Статистика раздачи [Обновить пиров]
Размер:  1016 MB   |    Зарегистрирован:  8 месяцев 20 дней   |    Скачан:  0 раз

Полного источника не было: Никогда

 
   
 
 
 

[Цитировать]

Уважаемый мистер Гейбл / Dear Mr. Gable
Дата/Год выпуска: 1968
Страна: США
Жанр: документальный, биография
Продолжительность: 00:52:00
Перевод: Одноголосый закадровый
Русские субтитры: нет
Оригинальная аудиодорожка: нет
Режиссер: Николас Ноксон / Nicolas Noxon
Описание: Этот весьма познавательный фильм производства MGM, закадровый текст в котором читает Бёрджесс Мередит, рассказывает о жизни и карьере голливудской легенды Кларка Гейбла, начиная с его детства в Огайо и вплоть до обретения им звёздного статуса в Голливуде, не забывая о его романтической жизни вне съемочной площадки, включая его брак с Кэрол Ломбард. В этом фильме кадры из классических фильмов с Гейблом сочетаются с интервью с людьми, знавшими его, среди которых - его одноклассник, его бывшая подружка и его бывший пресс-агент. Еще одним подарком зрителю станут редкие кадры из любительского фильма, снятого Гейблом и Ломбард во время турпохода.
Доп. информация:
IMDb: http://www.imdb.com/title/tt0461193/
User Rating: 6.2/10 (17 users)
Сэмпл
Качество: VHSRip
Формат: MP4
Видео: 720х576, 25.00 fps, AVC, 2503 kbps, 0.241 bit/pixel
Аудио: Russian: AAC, 2 ch, 48.0 KHz, 224 Kbps

MediaInfo

Общее
Полное имя : C:\Users\user\Downloads\Dear Mr. Gable (1968).mp4
Формат : MPEG-4
Профиль формата : Base Media
Идентификатор кодека : isom
Размер файла : 1016 Мбайт
Продолжительность : 52 м.
Общий поток : 2732 Кбит/сек
Программа кодирования : Lavf55.12.100
Видео
Идентификатор : 2
Формат : AVC
Формат/Информация : Advanced Video Codec
Профиль формата : Main@L3.0
Параметр CABAC формата : Да
Параметр ReFrames формата : 2 кадра
Параметр GOP формата : N=1
Идентификатор кодека : avc1
Идентификатор кодека/Информация : Advanced Video Coding
Продолжительность : 52 м.
Битрейт : 2503 Кбит/сек
Ширина : 720 пикселей
Высота : 576 пикселей
Соотношение сторон : 5:4
Режим частоты кадров : Постоянный
Частота кадров : 25,000 кадров/сек
Стандарт вещания : PAL
Цветовое пространство : YUV
Субдискретизация насыщенности : 4:2:0
Битовая глубина : 8 бит
Тип развёртки : Прогрессивная
Бит/(Пиксели*Кадры) : 0.241
Размер потока : 931 Мбайт (92%)
Язык : English
Аудио
Идентификатор : 1
Формат : AAC
Формат/Информация : Advanced Audio Codec
Профиль формата : LC
Идентификатор кодека : 40
Продолжительность : 52 м.
Вид битрейта : Постоянный
Битрейт : 224 Кбит/сек
Каналы : 2 канала
Расположение каналов : Front: L R
Частота : 48,0 КГц
Метод сжатия : С потерями
Размер потока : 83,3 Мбайт (8%)
Язык : English
[teatrix.ru].t21285.torrent 
Торрент: Зарегистрирован [ 2016-03-20 00:48 ] · FA89A5CC847C7161B4832A3EDA726EBE85890057

Скачать .torrent

Скачать

20 KB

Статус: проверено
Скачан: 0 раз
Размер: 1016 MB
terms.php



Показать сообщения:    

Текущее время: 09-Дек 18:32

Часовой пояс: UTC + 3


Вы не можете начинать темы
Вы не можете отвечать на сообщения
Вы не можете редактировать свои сообщения
Вы не можете удалять свои сообщения
Вы не можете голосовать в опросах
Вы не можете прикреплять файлы к сообщениям
Вы можете скачивать файлы