(Opera) Mayr - Fedra (Lee, Lindemann, Nelsen, Zagorski, Shin - Chor & Orchester des Staatstheaters Braunschweig, Schaller) - 2009, APE (image+.cue) lossless


 

[Цитировать]

Johann Simon Mayr - Fedra
Жанр: Baroque Opera
Страна-производитель диска: EU
Год издания диска: 2009
Издатель (лейбл): Oehms Classics
Номер по каталогу: OC920
Дата записи: 2008
Аудиокодек: APE
Тип рипа: image+.cue
Битрейт аудио: lossless
Продолжительность: 64'28+50'46
Источник: скачано с
Наличие сканов в содержимом раздачи: да
Треклист:

CD1

1. Sinfonia
2. Ah di Trezène
3. Cari amici! Il fato, udite
4. Dagli occhi piove
5. Per quell' Adon, che amasti
6. D'Atide in sen gli affanni tuoi
7. Compagno, amico, addio
8. Assistetelo, o Dei
9. M'attendi, o padre
10. Sappi che sotto
11. Se orror di te non hai
12. Delle trombe al suon festivo
13. Cento rimorsi, e cento
14. Qual fragor! Qual tremito!

CD2

1. Ai patri lari
2. Sereno è il cielo
3. Del tuo duolo
4. Sol che Ippolito parli
5. Io conosco
6. Fra due rivali affetti
7. Ebben, Tesèo... scegliesti?
8. Questo è l'acciar
9. Conosci tu questo ferro?
10. Soffrirei senza lagnarmi
11. Ingrata Fedra!
12. Che feci mai!
13. Mesto... incerto
14. Qual suon ranco di tube
15. Gelosia, dispetto, affanno
16. Se fiero, Ippolito
Исполнители:
Johann Simon Mayr (1763-1845) - Fedra
Melodramma serio in two acts (1820)
Fedra, second wife of the king - Capuine Chiaudani (soprano)
Teseo - Tomasz Zagorski (tenor)
Ippolito - Rebecca Nelson (lyric soprano)
Atide, confidante of Fedra - Hyo-Jin Shin (soprano)
Teramene - Dae-Bum Lee (bass);
State Orchestra and Chorus of Braunschweig
Gerd Schaller, Conductor

Содержание индексной карты (.CUE)

CD1

REM ACCURATERIPID 0020c66e-0156e283-c50f1a0e
REM GENRE "Opera"
REM COMMENT "CUETools generated dummy CUE sheet"
PERFORMER "Lindemann; Chiaudani; Lee; Staatsorchester Braunschweig; Schaller"
TITLE "Johann Simon Mayr: Fedra"
FILE "Mayr - Fedra, Schaller CD1.ape" WAVE
TRACK 01 AUDIO
TITLE "Mayr: Fedra, opera - Sinfonia"
PERFORMER "Lindemann; Chiaudani; Lee; Staatsorchester Braunschweig; Schaller"
INDEX 01 00:00:00
TRACK 02 AUDIO
TITLE "Mayr: Fedra, opera - Ah di Trezène"
PERFORMER "Lindemann; Chiaudani; Lee; Staatsorchester Braunschweig; Schaller"
INDEX 01 08:12:46
TRACK 03 AUDIO
TITLE "Mayr: Fedra, opera - Cari amici! Il fato, udite"
PERFORMER "Lindemann; Chiaudani; Lee; Staatsorchester Braunschweig; Schaller"
INDEX 01 11:54:02
TRACK 04 AUDIO
TITLE "Mayr: Fedra, opera - Dagli occhi piove"
PERFORMER "Lindemann; Chiaudani; Lee; Staatsorchester Braunschweig; Schaller"
INDEX 01 16:21:34
TRACK 05 AUDIO
TITLE "Mayr: Fedra, opera - Per quell'' Adon, che amasti"
PERFORMER "Lindemann; Chiaudani; Lee; Staatsorchester Braunschweig; Schaller"
INDEX 01 20:16:55
TRACK 06 AUDIO
TITLE "Mayr: Fedra, opera - D''Atide in sen gli affanni tuoi"
PERFORMER "Lindemann; Chiaudani; Lee; Staatsorchester Braunschweig; Schaller"
INDEX 01 24:56:72
TRACK 07 AUDIO
TITLE "Mayr: Fedra, opera - Compagno, amico, addio"
PERFORMER "Lindemann; Chiaudani; Lee; Staatsorchester Braunschweig; Schaller"
INDEX 01 26:13:38
TRACK 08 AUDIO
TITLE "Mayr: Fedra, opera - Assistetelo, o Dei"
PERFORMER "Lindemann; Chiaudani; Lee; Staatsorchester Braunschweig; Schaller"
INDEX 01 34:11:35
TRACK 09 AUDIO
TITLE "Mayr: Fedra, opera - M''attendi, o padre"
PERFORMER "Lindemann; Chiaudani; Lee; Staatsorchester Braunschweig; Schaller"
INDEX 01 35:06:02
TRACK 10 AUDIO
TITLE "Mayr: Fedra, opera - Sappi che sotto"
PERFORMER "Lindemann; Chiaudani; Lee; Staatsorchester Braunschweig; Schaller"
INDEX 01 36:49:04
TRACK 11 AUDIO
TITLE "Mayr: Fedra, opera - Se orror di te non hai"
PERFORMER "Lindemann; Chiaudani; Lee; Staatsorchester Braunschweig; Schaller"
INDEX 01 38:28:71
TRACK 12 AUDIO
TITLE "Mayr: Fedra, opera - Delle trombe al suon festivo"
PERFORMER "Lindemann; Chiaudani; Lee; Staatsorchester Braunschweig; Schaller"
INDEX 01 49:06:59
TRACK 13 AUDIO
TITLE "Mayr: Fedra, opera - Cento rimorsi, e cento"
PERFORMER "Lindemann; Chiaudani; Lee; Staatsorchester Braunschweig; Schaller"
INDEX 01 53:03:35
TRACK 14 AUDIO
TITLE "Mayr: Fedra, opera - Qual fragor! Qual tremito!"
PERFORMER "Lindemann; Chiaudani; Lee; Staatsorchester Braunschweig; Schaller"
INDEX 01 58:11:46

CD2

REM ACCURATERIPID 001903c5-01393adb-c80be410
REM GENRE "Opera"
REM COMMENT "CUETools generated dummy CUE sheet"
PERFORMER "Lindemann; Chiaudani; Lee; Staatsorchester Braunschweig; Schaller"
TITLE "Johann Simon Mayr: Fedra"
FILE "Mayr - Fedra, Schaller CD2.ape" WAVE
TRACK 01 AUDIO
TITLE "Mayr: Fedra, opera - Ai patri lari"
PERFORMER "Lindemann; Chiaudani; Lee; Staatsorchester Braunschweig; Schaller"
INDEX 01 00:00:00
TRACK 02 AUDIO
TITLE "Mayr: Fedra, opera - Sereno è il cielo"
PERFORMER "Lindemann; Chiaudani; Lee; Staatsorchester Braunschweig; Schaller"
INDEX 01 00:43:56
TRACK 03 AUDIO
TITLE "Mayr: Fedra, opera - Del tuo duolo"
PERFORMER "Lindemann; Chiaudani; Lee; Staatsorchester Braunschweig; Schaller"
INDEX 01 01:48:41
TRACK 04 AUDIO
TITLE "Mayr: Fedra, opera - Sol che Ippolito parli"
PERFORMER "Lindemann; Chiaudani; Lee; Staatsorchester Braunschweig; Schaller"
INDEX 01 05:47:71
TRACK 05 AUDIO
TITLE "Mayr: Fedra, opera - Io conosco"
PERFORMER "Lindemann; Chiaudani; Lee; Staatsorchester Braunschweig; Schaller"
INDEX 01 08:05:04
TRACK 06 AUDIO
TITLE "Mayr: Fedra, opera - Fra due rivali affetti"
PERFORMER "Lindemann; Chiaudani; Lee; Staatsorchester Braunschweig; Schaller"
INDEX 01 11:47:15
TRACK 07 AUDIO
TITLE "Mayr: Fedra, opera - Ebben, Tesèo... scegliesti?"
PERFORMER "Lindemann; Chiaudani; Lee; Staatsorchester Braunschweig; Schaller"
INDEX 01 15:16:23
TRACK 08 AUDIO
TITLE "Mayr: Fedra, opera - Questo è l''acciar"
PERFORMER "Lindemann; Chiaudani; Lee; Staatsorchester Braunschweig; Schaller"
INDEX 01 17:53:41
TRACK 09 AUDIO
TITLE "Mayr: Fedra, opera - Conosci tu questo ferro?"
PERFORMER "Lindemann; Chiaudani; Lee; Staatsorchester Braunschweig; Schaller"
INDEX 01 18:44:36
TRACK 10 AUDIO
TITLE "Mayr: Fedra, opera - Soffrirei senza lagnarmi"
PERFORMER "Lindemann; Chiaudani; Lee; Staatsorchester Braunschweig; Schaller"
INDEX 01 22:29:09
TRACK 11 AUDIO
TITLE "Mayr: Fedra, opera - Ingrata Fedra!"
PERFORMER "Lindemann; Chiaudani; Lee; Staatsorchester Braunschweig; Schaller"
INDEX 01 27:54:39
TRACK 12 AUDIO
TITLE "Mayr: Fedra, opera - Che feci mai!"
PERFORMER "Lindemann; Chiaudani; Lee; Staatsorchester Braunschweig; Schaller"
INDEX 01 28:33:57
TRACK 13 AUDIO
TITLE "Mayr: Fedra, opera - Mesto... incerto"
PERFORMER "Lindemann; Chiaudani; Lee; Staatsorchester Braunschweig; Schaller"
INDEX 01 30:29:26
TRACK 14 AUDIO
TITLE "Mayr: Fedra, opera - Qual suon ranco di tube"
PERFORMER "Lindemann; Chiaudani; Lee; Staatsorchester Braunschweig; Schaller"
INDEX 01 36:52:08
TRACK 15 AUDIO
TITLE "Mayr: Fedra, opera - Gelosia, dispetto, affanno"
PERFORMER "Lindemann; Chiaudani; Lee; Staatsorchester Braunschweig; Schaller"
INDEX 01 42:03:56
TRACK 16 AUDIO
TITLE "Mayr: Fedra, opera - Se fiero, Ippolito"
PERFORMER "Lindemann; Chiaudani; Lee; Staatsorchester Braunschweig; Schaller"
INDEX 01 45:04:12

Лог проверки качества

CD1

[CUETools log; Date: 28-5-2015 15:52:10; Version: 2.1.4]
[AccurateRip ID: 0020c66e-0156e283-c50f1a0e] disk not present in database.
Track Peak [ CRC32 ] [W/O NULL]
-- 100,0 [C199D8E0] [4A6B168B]
01 69,1 [97BAC0D4] [B882AA4B]
02 77,4 [F86DB7F2] [065114C8]
03 98,4 [40617334] [A757E318]
04 72,0 [03B3E235] [400B5112]
05 76,5 [C660A785] [7BCC1555]
06 67,1 [BBC069E7] [5BB6A130]
07 83,0 [0CB29597] [7BB4C865]
08 68,9 [9B6EDC3E] [FDE0473D]
09 50,6 [3CBC0258] [6E33167F]
10 64,0 [F5C69D07] [1C423887]
11 90,6 [4CFAD4B6] [80271CD7]
12 69,9 [44CDA817] [02E9656F]
13 69,9 [4F9469C7] [D9C92864]
14 100,0 [74E45944] [63FC793E]

CD2

[CUETools log; Date: 28-5-2015 15:52:32; Version: 2.1.4]
[AccurateRip ID: 001903c5-01393adb-c80be410] disk not present in database.
Track Peak [ CRC32 ] [W/O NULL]
-- 94,3 [B7DFDE62] [515D638E]
01 45,7 [317DF66D] [773110EC]
02 63,8 [888EC5DA] [5C8977EA]
03 74,6 [E762742C] [93477FFC]
04 62,8 [77E1F5B3] [4B0C84C9]
05 75,2 [EF0FCDEA] [B06E26F7]
06 51,1 [698A9B81] [BEAACF0E]
07 72,8 [6DB628BD] [49E30F63]
08 62,5 [CABF03B7] [810D37CA]
09 70,2 [5DEBA7EC] [931BC229]
10 84,8 [5C83BC65] [5E59A7CC]
11 36,0 [B58A0932] [7A24E8B6]
12 45,2 [F2A61479] [4D04D931]
13 61,3 [2D919E3E] [99D935CA]
14 65,6 [E10D6CEE] [05D1F16A]
15 65,9 [F2D63B79] [EC00AD6F]
16 94,3 [1CF5C51E] [49405DCC]
Доп. информация:
The opera Fedra is a "melodramma serio" in two acts composed by Simon Mayr to an Italian-language libretto by Luigi Romanelli based on Racine's play Phèdre.
It premiered on 26 December 1820 at La Scala in Milan with Teresa Belloc-Giorgi in the title role.
Twenty-five years ago, Johann Mayr was known primarily as Donizetti’s teacher; with the bel canto revival no longer concentrating on the better-known of the genre, we now have recordings of his Ginevra di Scozia, Medea in Corinto, Che Originali!, L’amor coniugale, and a collection of arias and scenes from five other operas, including one from the complete work under consideration here, Fedra.
Briefly, the plot revolves around Fedra, the miserably unhappy second wife of Theseus, with whose son, Ippolito, she has fallen in love. Theseus is believed dead, so Fedra confesses her love to Ippolito; he repulses her. Meanwhile Fedra’s confidante, Atide, trying to head trouble off at the pass, tells the king (upon his surprise return) that Ippolito has tried to seduce Fedra. The king condemns his son to death and Fedra reprimands Atide, who commits suicide. Theseus, doubting his own judgment, is about to pardon Ippolito when the latter’s horses, frightened by a bull, bolt and trample Ippolito to death (sadly, offstage). Fedra takes poison and goes to see Ippolito’s body; she and Theseus blame each other. She dies, cursed by the local men and pitied by the women.
Mayr’s reputation as a great orchestrator is everywhere in evidence in this opera, with woodwinds used prominently and sometimes alone, not necessarily as obbligato instruments but as the carriers of melodies or chordal underpinnings. And while about half of the music is formulaic and somewhat predictable (but still enjoyable, especially for bel canto fans), there is a marvelous duet for Fedra and Ippolito (a trouser role), a superb 12-minute finale to the first act, a nice tenor/soprano duet in Act 2, and a superb, rueful, enraged, tragic final scene for Fedra.
None of the singers in this live performance from the State Theatre, Braunschweig, recorded in March and April 2008, is familiar. In the title role is a dark-hued soprano, Capucine Chiaudani, with a very expressive voice and fairly good technique (a few pitch issues aside), if not a very lovely sound–but she properly dominates the action and tears into her music with great clarity and sense of purpose. Tenor Thomas Zagorski is a credible, emotionally torn Teseo, with some fluid coloratura and an appealing sound. Rebecca Nelson is the Ippolito–clearly meant to be a truly young man–whose pretty, agile voice could use only a bit more weight. As Teramene, a higher-up at Theseus’ court, bass Dae-Bum Lee delivers his music authoritatively. Hyo-Jin Shin as Atide shines in the first-act ensemble, and Jörn Lindemann as Filocle (a messenger) handles his recit-only role well. Gerd Schaller keeps everything moving and gives the singers the room they require; only his handling of the secco recitatives is lifeless. Chorus and orchestra are fine.



Показать сообщения:    

Текущее время: 09-Дек 06:57

Часовой пояс: UTC + 3


Вы не можете начинать темы
Вы не можете отвечать на сообщения
Вы не можете редактировать свои сообщения
Вы не можете удалять свои сообщения
Вы не можете голосовать в опросах
Вы не можете прикреплять файлы к сообщениям
Вы не можете скачивать файлы