Богини любви / The Love Goddesses (Сол Дж. Тьюрелл / Saul J. Turell) [1965, документальный, DVDRip]


Статистика раздачи [Обновить пиров]
Размер:  856 MB   |    Зарегистрирован:  8 месяцев 14 дней   |    Скачан:  1 раз

Полного источника не было: 2 месяца 21 день

 
   
 
 
 

[Цитировать]

Богини любви / The Love Goddesses
Дата/Год выпуска: 1965
Страна: США
Жанр: документальный
Продолжительность: 01:18:52
Перевод: Субтитры (lavr73)
Русские субтитры: есть
Формат субтитров: softsub (SRT) (rus, eng)
Оригинальная аудиодорожка: английский
Режиссер: Сол Дж. Тьюрелл / Saul J. Turell
Сценарий: Грэм Фергюсон, Сол Дж. Тьюрелл
В ролях: Лилиан Гиш, Теда Бара, Грета Гарбо, Клара Боу, Марлен Дитрих, Луиза Брукс, Хеди Ламарр, Джин Харлоу, Барбара Стэнвик, Рита Хейворт, Элизабет Тэйлор, Софи Лорен, Мэрилин Монро, Одри Хепберн, Брижит Бардо и др.
Описание: Эта документальная лента рассказывает о блистательных женщинах - секс-символах кинематографа, начиная от рождения кино до начала 60-х. Попутно режиссер показывает, как изменялись нормы культуры и морали, что было дозволено в ту или иную эпоху, а что нет.
Качество: DVDRip
формат: AVI
Видео: 640x416 (1.54:1), 23.976 fps, XviD build 46 ~1393 kbps avg, 0.22 bit/pixel
Аудио: 48 kHz, MPEG Layer 3, 2 ch, ~109.20 kbps avg

MediaInfo

Общее
Полное имя : I:\Downloaded\Love Goddesses.1965.Saul Turell\Love Goddesses.1965.Saul Turell.avi
Формат : AVI
Формат/Информация : Audio Video Interleave
Размер файла : 856 Мбайт
Продолжительность : 1 ч. 18 м.
Режим общего битрейта : Переменный
Общий поток : 1517 Кбит/сек
Видео
Идентификатор : 0
Формат : MPEG-4 Visual
Профиль формата : Advanced Simple@L5
Параметр BVOP формата : 1
Параметр QPel формата : Нет
Параметр GMC формата : Без точки перехода
Параметр матрицы формата : Default (MPEG)
Идентификатор кодека : XVID
Идентификатор кодека/Подсказка : XviD
Продолжительность : 1 ч. 18 м.
Битрейт : 1395 Кбит/сек
Ширина : 640 пикселей
Высота : 416 пикселей
Соотношение сторон : 16:9
Частота кадров : 23,976 кадра/сек
Цветовое пространство : YUV
Субдискретизация насыщенности : 4:2:0
Битовая глубина : 8 бит
Тип развёртки : Прогрессивная
Метод сжатия : С потерями
Бит/(Пиксели*Кадры) : 0.218
Размер потока : 787 Мбайт (92%)
Библиотека кодирования : XviD 1.1.2 (UTC 2006-11-01)
Аудио
Идентификатор : 1
Формат : MPEG Audio
Версия формата : Version 1
Профиль формата : Layer 3
Режим : Joint stereo
Расширение режима : MS Stereo
Идентификатор кодека : 55
Идентификатор кодека/Подсказка : MP3
Продолжительность : 1 ч. 18 м.
Вид битрейта : Переменный
Битрейт : 109 Кбит/сек
Номинальный битрейт : 128 Кбит/сек
Каналы : 2 канала
Частота : 48,0 КГц
Метод сжатия : С потерями
Размер потока : 61,6 Мбайт (7%)
Выравнивание : Соединение по промежуткам
Продолжительность промежутка : 24 мс. (0,58 видеокадр)
Время предзагрузки промежутка : 168 мс.
Библиотека кодирования : LAME3.90.
Настройки программы : -m j -V 4 -q 2 -lowpass 17.6 --abr 128

Скриншоты

[teatrix.ru].t21287.torrent 
Торрент: Зарегистрирован [ 2016-03-20 00:48 ] · 9E9C4727544A4942988A50037E328BE77190FFA5

Скачать .torrent

Скачать

17 KB

Статус: проверено
Скачан: 1 раз
Размер: 856 MB
terms.php



Показать сообщения:    

Текущее время: 03-Дек 01:15

Часовой пояс: UTC + 3


Вы не можете начинать темы
Вы не можете отвечать на сообщения
Вы не можете редактировать свои сообщения
Вы не можете удалять свои сообщения
Вы не можете голосовать в опросах
Вы не можете прикреплять файлы к сообщениям
Вы можете скачивать файлы