(Classical, Chamber) Kim Kashkashian & Robert Levin - Asturiana - 2007, FLAC (image+.cue), lossless


 

[Цитировать]

Kim Kashkashian & Robert Levin - Asturiana
Music by Manuel de Falla, Enrique Granados, Carlos Guastavino, Alberto Ginastera,
Xavier Montsalvatge, Carlos Lopez Buchardo
Transcriptions for viola and piano by Kim Kashkashian and Robert Levin
Жанр: Classical, Chamber
Страна-производитель диска: Germany
Год издания диска: 2007
Издатель (лейбл): ECM Records
Номер по каталогу: 1975 476 6149
Дата записи: 2006
Аудиокодек: FLAC
Тип рипа: image+.cue
Битрейт аудио: lossless
Продолжительность: 72.06
Источник: собственный рип
Наличие сканов в содержимом раздачи: да
Исполнители: Kim Kashkashian, viola, Robert Levin, piano

Треклист:

Manuel de Falla
01. Asturiana
Enrique Granados
02. El Mirar de la Maja
03. El Majo olvidado
04. La Maja dolorosa
05. El Majo discreto
Carlos Guastavino
06. La rosa y el sauce
Alberto Ginastera
07. Triste
Xavier Montsalvatge
08. Canción de cuna para dormir un negrito
09. Chévere
10. Cuba dentro de un piano
11. Punto de Habanera
Manuel de Falla
12. El paño moruno
13. Seguidilla murciana
14. Asturiana
15. Jota
16. Nana
17. Canción
18. Polo
Alberto Ginastera
19. Triste
Carlos Guastavino
20. Se equivoco la paloma...
21. Abismo de sed
22. Pampamapa
23. Bonita rama de sauce
24. La rosa y el sauce
Carlos Lopez Buchardo
25. Prendiditos la mano
26. Oye mi llanto
Total 72.06

Лог создания рипа:

Exact Audio Copy V1.0 beta 3 from 29. August 2011
Отчёт EAC об извлечении, выполненном 29. мая 2015, 13:37
Kim Kashkashian & Robert Levin / Asturiana
Дисковод: Optiarc DVD RW AD-7260S Adapter: 0 ID: 1
Режим чтения : Достоверность
Использование точного потока : Да
Отключение кэша аудио : Да
Использование указателей C2 : Нет
Коррекция смещения при чтении : 48
Способность читать области Lead-in и Lead-out : Нет
Заполнение пропущенных сэмплов тишиной : Да
Удаление блоков с тишиной в начале и конце : Нет
При вычислениях CRC использовались нулевые сэмплы : Да
Интерфейс : Встроенный Win32-интерфейс для Win NT/2000
Выходной формат : Пользовательский кодировщик
Выбранный битрейт : 896 kBit/s
Качество : Высокий
Добавление ID3-тега : Нет
Утилита сжатия : C:\Program Files\FLAC Frontend\tools\flac.exe
Дополнительные параметры : -V -8 -T "Date=%year%" -T "Genre=%genre%" %source%
TOC извлечённого CD
Трек | Старт | Длительность | Начальный сектор | Конечный сектор
---------------------------------------------------------------------
1 | 0:00.00 | 2:51.07 | 0 | 12831
2 | 2:51.07 | 2:59.56 | 12832 | 26312
3 | 5:50.63 | 3:19.11 | 26313 | 41248
4 | 9:09.74 | 3:26.73 | 41249 | 56771
5 | 12:36.72 | 1:26.32 | 56772 | 63253
6 | 14:03.29 | 2:20.04 | 63254 | 73757
7 | 16:23.33 | 3:44.47 | 73758 | 90604
8 | 20:08.05 | 2:54.01 | 90605 | 103655
9 | 23:02.06 | 2:03.74 | 103656 | 112954
10 | 25:06.05 | 4:44.56 | 112955 | 134310
11 | 29:50.61 | 1:13.04 | 134311 | 139789
12 | 31:03.65 | 2:26.16 | 139790 | 150755
13 | 33:30.06 | 1:15.37 | 150756 | 156417
14 | 34:45.43 | 2:42.28 | 156418 | 168595
15 | 37:27.71 | 2:44.42 | 168596 | 180937
16 | 40:12.38 | 2:37.13 | 180938 | 192725
17 | 42:49.51 | 1:36.04 | 192726 | 199929
18 | 44:25.55 | 1:25.57 | 199930 | 206361
19 | 45:51.37 | 3:44.60 | 206362 | 223221
20 | 49:36.22 | 2:18.54 | 223222 | 233625
21 | 51:55.01 | 3:30.07 | 233626 | 249382
22 | 55:25.08 | 4:16.55 | 249383 | 268637
23 | 59:41.63 | 3:42.02 | 268638 | 285289
24 | 63:23.65 | 2:20.16 | 285290 | 295805
25 | 65:44.06 | 1:56.32 | 295806 | 304537
26 | 67:40.38 | 4:23.52 | 304538 | 324314
Характеристики диапазона извлечения и сообщения об ошибках
Выбранный диапазон
Имя файла D:\EAC\Мои раздачи\Kim Kashkashian & Robert Levin - Asturiana\Kim Kashkashian & Robert Levin - Asturiana.wav
Пиковый уровень 99.7 %
Скорость извлечения 4.5 X
Качество диапазона 100.0 %
CRC теста 6C100E89
CRC копии 6C100E89
Копирование... OK
Ошибок не произошло
AccurateRip: сводка
Трек 1 : извлечено точно (доверие 29) [5B74E27F] (AR v2)
Трек 2 : извлечено точно (доверие 29) [9F7108BC] (AR v2)
Трек 3 : извлечено точно (доверие 29) [02791EEF] (AR v2)
Трек 4 : извлечено точно (доверие 29) [BF39FA98] (AR v2)
Трек 5 : извлечено точно (доверие 29) [6712F05B] (AR v2)
Трек 6 : извлечено точно (доверие 29) [BA7148F9] (AR v2)
Трек 7 : извлечено точно (доверие 28) [9C86AC6E] (AR v2)
Трек 8 : извлечено точно (доверие 29) [CE031DB7] (AR v2)
Трек 9 : извлечено точно (доверие 28) [ABE4F35F] (AR v2)
Трек 10 : извлечено точно (доверие 27) [A2781834] (AR v2)
Трек 11 : извлечено точно (доверие 28) [C32D2E7E] (AR v2)
Трек 12 : извлечено точно (доверие 29) [D9C3F45A] (AR v2)
Трек 13 : извлечено точно (доверие 28) [CBF7C605] (AR v2)
Трек 14 : извлечено точно (доверие 29) [574F4832] (AR v2)
Трек 15 : извлечено точно (доверие 29) [DAC12D80] (AR v2)
Трек 16 : извлечено точно (доверие 27) [74E23549] (AR v2)
Трек 17 : извлечено точно (доверие 29) [2F4EA7E2] (AR v2)
Трек 18 : извлечено точно (доверие 29) [A0660CC7] (AR v2)
Трек 19 : извлечено точно (доверие 28) [DC444348] (AR v2)
Трек 20 : извлечено точно (доверие 28) [36E9F586] (AR v2)
Трек 21 : извлечено точно (доверие 29) [5F608FF3] (AR v2)
Трек 22 : извлечено точно (доверие 29) [60460ED0] (AR v2)
Трек 23 : извлечено точно (доверие 29) [B64A91A9] (AR v2)
Трек 24 : извлечено точно (доверие 28) [A5D9D3AC] (AR v2)
Трек 25 : извлечено точно (доверие 28) [5EF239CE] (AR v2)
Трек 26 : извлечено точно (доверие 29) [FD891336] (AR v2)
Все треки извлечены точно
Конец отчёта
==== Контрольная сумма отчёта 7C40D3070FEEA90190BCE7DA1A9F362EEC5FE016D8203C92E8CE5778DF717ED6 ====



Показать сообщения:    

Текущее время: 04-Дек 02:52

Часовой пояс: UTC + 3


Вы не можете начинать темы
Вы не можете отвечать на сообщения
Вы не можете редактировать свои сообщения
Вы не можете удалять свои сообщения
Вы не можете голосовать в опросах
Вы не можете прикреплять файлы к сообщениям
Вы не можете скачивать файлы