(Classical, Chamber) Hindemith as Interpreter - The Amar-Hindemith Quartet plays Mozart, Beethoven, Bartok - 2003, FLAC (image+.cue), lossless


 

[Цитировать]

Hindemith as Interpreter
Жанр: Classical, Chamber
Страна-производитель диска: USA
Год издания диска: 2003
Издатель (лейбл): Arbiter of Cultural Traditions Inc.
Номер по каталогу: 139
Дата записи: 1926
Аудиокодек: FLAC
Тип рипа: image+.cue
Битрейт аудио: lossless
Продолжительность: 76.47
Источник: собственный рип
Наличие сканов в содержимом раздачи: да
Исполнители: The Amar-Hindemith Quartet

Треклист:

Mozart: String Quartet in E flat, K. 428
01. I. Allegro non troppo
02. II. Andante con moto
03. III. Menuetto
04. IV. Allegro vivace
Bartok: String Quartet No. 2
05. I.
06. II.
07. III.
Beethoven: String Quartet in f, Op. 95
08. I. Allegro con brio
09. II. Allegretto ma non troppo
10. III. Allegro assai vivace ma serioso
11. IV. Larghetto aspressivo/ Allegretto agitato
Total 76.47

Лог создания рипа:

Exact Audio Copy V1.0 beta 3 from 29. August 2011
Отчёт EAC об извлечении, выполненном 29. мая 2015, 19:26
The Amar-Hindemith Quartet / Hindemith as Interpreter
Дисковод: Optiarc DVD RW AD-7260S Adapter: 0 ID: 1
Режим чтения : Достоверность
Использование точного потока : Да
Отключение кэша аудио : Да
Использование указателей C2 : Нет
Коррекция смещения при чтении : 48
Способность читать области Lead-in и Lead-out : Нет
Заполнение пропущенных сэмплов тишиной : Да
Удаление блоков с тишиной в начале и конце : Нет
При вычислениях CRC использовались нулевые сэмплы : Да
Интерфейс : Встроенный Win32-интерфейс для Win NT/2000
Выходной формат : Пользовательский кодировщик
Выбранный битрейт : 896 kBit/s
Качество : Высокий
Добавление ID3-тега : Нет
Утилита сжатия : C:\Program Files\FLAC Frontend\tools\flac.exe
Дополнительные параметры : -V -8 -T "Date=%year%" -T "Genre=%genre%" %source%
TOC извлечённого CD
Трек | Старт | Длительность | Начальный сектор | Конечный сектор
---------------------------------------------------------------------
1 | 0:00.00 | 6:32.12 | 0 | 29411
2 | 6:32.12 | 8:37.40 | 29412 | 68226
3 | 15:09.52 | 4:07.08 | 68227 | 86759
4 | 19:16.60 | 4:30.17 | 86760 | 107026
5 | 23:47.02 | 13:00.08 | 107027 | 165534
6 | 36:47.10 | 8:06.60 | 165535 | 202044
7 | 44:53.70 | 12:17.42 | 202045 | 257361
8 | 57:11.37 | 4:23.68 | 257362 | 277154
9 | 61:35.30 | 6:40.40 | 277155 | 307194
10 | 68:15.70 | 3:55.05 | 307195 | 324824
11 | 72:11.00 | 4:29.50 | 324825 | 345049
Характеристики диапазона извлечения и сообщения об ошибках
Выбранный диапазон
Имя файла D:\EAC\Мои раздачи\Hindemith as Interpreter\The Amar-Hindemith Quartet - Hindemith as Interpreter.wav
Пиковый уровень 100.0 %
Скорость извлечения 4.4 X
Качество диапазона 100.0 %
CRC теста 3FAD5C4A
CRC копии 3FAD5C4A
Копирование... OK
Ошибок не произошло
AccurateRip: сводка
Трек 1 отсутствует в базе данных
Трек 2 отсутствует в базе данных
Трек 3 отсутствует в базе данных
Трек 4 отсутствует в базе данных
Трек 5 отсутствует в базе данных
Трек 6 отсутствует в базе данных
Трек 7 отсутствует в базе данных
Трек 8 отсутствует в базе данных
Трек 9 отсутствует в базе данных
Трек 10 отсутствует в базе данных
Трек 11 отсутствует в базе данных
Ни одного трека нет в базе AccurateRip
Конец отчёта
==== Контрольная сумма отчёта 6DC67A970BB1F2918C63A54F32B44C2CDF3F23782976741D7FC301B76A782F9F ====



Показать сообщения:    

Текущее время: 06-Дек 15:11

Часовой пояс: UTC + 3


Вы не можете начинать темы
Вы не можете отвечать на сообщения
Вы не можете редактировать свои сообщения
Вы не можете удалять свои сообщения
Вы не можете голосовать в опросах
Вы не можете прикреплять файлы к сообщениям
Вы не можете скачивать файлы