(Classical) Henryk Gorecki - Symphony No.3; Three Olden Style Pieces - Zofia Kilanowicz, Polish National Radio Symphony Orchestra (Katowice), Antoni Wit - 2001, FLAC (image+.cue) lossless


 

[Цитировать]

Henryk Górecki - Symphony No.3; Three Olden Style Pieces - Zofia Kilanowicz, Polish National Radio Symphony Orchestra (Katowice), Antoni Wit
Жанр: Classical
Год издания диска: 2001
Издатель (лейбл): Naxos
Номер по каталогу: 8.550822
Дата записи: 1993
Аудиокодек: FLAC
Тип рипа: image+.cue
Битрейт аудио: lossless
Продолжительность: 66:05
Источник: собственный рип
Наличие сканов в содержимом раздачи: да
Треклист:
Henryk Górecki (1933-2010)
[1]-[3] Symphony No.3, Op.36
(Symphony of Sorrowful Songs)
[4]-[6] Three Olden Style Pieces
Исполнители:
Zofia Kilanowicz soprano
Polish National Radio Symphony Orchestra (Katowice)
Antoni Wit

Лог создания рипа

Exact Audio Copy V1.0 beta 3 from 29. August 2011
EAC extraction logfile from 24. July 2014, 16:18
Zofia Kilanowicz, Polish National Radio Symphony Orchestra, Antoni Wit / Gorecki - Symphony No.3
Used drive : HL-DT-STDVDRRW GWA-4164B Adapter: 5 ID: 0
Read mode : Secure
Utilize accurate stream : Yes
Defeat audio cache : Yes
Make use of C2 pointers : No
Read offset correction : 102
Overread into Lead-In and Lead-Out : No
Fill up missing offset samples with silence : Yes
Delete leading and trailing silent blocks : No
Null samples used in CRC calculations : Yes
Used interface : Native Win32 interface for Win NT & 2000
Used output format : User Defined Encoder
Selected bitrate : 896 kBit/s
Quality : High
Add ID3 tag : No
Command line compressor : C:\Program Files\Exact Audio Copy\FLAC\FLAC.EXE
Additional command line options : -V -8 %source%
TOC of the extracted CD
Track | Start | Length | Start sector | End sector
---------------------------------------------------------
1 | 0:00.00 | 27:11.25 | 0 | 122349
2 | 27:11.25 | 10:18.00 | 122350 | 168699
3 | 37:29.25 | 18:37.00 | 168700 | 252474
4 | 56:06.25 | 3:17.25 | 252475 | 267274
5 | 59:23.50 | 2:12.70 | 267275 | 277244
6 | 61:36.45 | 4:27.15 | 277245 | 297284
Range status and errors
Selected range
Filename D:\temp\Music\Naxos_8.550822 - Gorecki - Symphony No.3\Gorecki - Symphony No.3.wav
Peak level 98.6 %
Extraction speed 2.8 X
Range quality 100.0 %
Test CRC 161F1BF6
Copy CRC 161F1BF6
Copy OK
No errors occurred
AccurateRip summary
Track 1 cannot be verified as accurate (confidence 24) [6317EA7B], AccurateRip returned [C7A9C001] (AR v2)
Track 2 cannot be verified as accurate (confidence 24) [169B271C], AccurateRip returned [84EE06B0] (AR v2)
Track 3 cannot be verified as accurate (confidence 23) [723596DC], AccurateRip returned [4B704343] (AR v2)
Track 4 cannot be verified as accurate (confidence 23) [8D2AA355], AccurateRip returned [867AF47F] (AR v2)
Track 5 cannot be verified as accurate (confidence 24) [A0EF1994], AccurateRip returned [790CC527] (AR v2)
Track 6 cannot be verified as accurate (confidence 24) [754C2BEC], AccurateRip returned [3D334C95] (AR v2)
No tracks could be verified as accurate
You may have a different pressing from the one(s) in the database
End of status report
==== Log checksum 830E83CE39A053E4C5E5A2970DED5F3CD8D57882D6DFDF38CC7E851C3299D73F ====



Показать сообщения:    

Текущее время: 04-Дек 00:46

Часовой пояс: UTC + 3


Вы не можете начинать темы
Вы не можете отвечать на сообщения
Вы не можете редактировать свои сообщения
Вы не можете удалять свои сообщения
Вы не можете голосовать в опросах
Вы не можете прикреплять файлы к сообщениям
Вы не можете скачивать файлы