[TR24][OF] J.S. Bach - Sonatas & Partitas for Solo Violin, BWV 1001-1006 - Sirkka-Liisa Kaakinen-Pilch - 2013 (Classical)


Статистика раздачи [Обновить пиров]
Размер:  2.74 GB   |    Зарегистрирован:  8 месяцев 15 дней   |    Скачан:  0 раз

Полного источника не было: Никогда

 
   
 
 
 

[Цитировать]

J.S. Bach
Sonatas & Partitas for Solo Violin
Sirkka-Liisa Kaakinen-Pilch
-Год издания: 2013 | Жанр: Classical
Издатель (лейбл): Ondine | Продолжительность: 02:27:41
Наличие сканов: Covers, Digital Booklet- -Sirkka-Liisa Kaakinen-Pilch, violin
Recorded: Karjaa Church (Karjaan Pyhän Katariinan Kirkko), Finland
October & November 2012, January & March 2013

-
Контейнер: FLAC (*.flac) | Тип рипа: tracks
Разрядность: 24bit / 96kHz | Количество каналов: 2.0

-
Треклист
Johann Sebastian Bach (1685-1750)
CD 1
Violin Sonata No. 1 in G Minor, BWV 1001
01. I. Adagio (3:54)
02. II. Fugue: Allegro (6:33)
03. III. Siciliana (3:17)
04. IV. Presto (4:08)
Violin Partita No. 1 in B Minor, BWV 1002
05. I. Allemanda (5:46)
06. II. Double (2:53)
07. III. Corrente (3:15)
08. IV. Double. Presto (3:47)
09. V. Sarabanda (4:13)
10. VI. Double (2:59)
11. VII. Tempo di Bourree (3:28)
12. VIII. Double (3:25)
Violin Sonata No. 2 in A Minor, BWV 1003
13. I. Grave (3:57)
14. II. Fuga (8:40)
15. III. Andante (5:38)
16. IV. Allegro (4:45)
CD 2
Violin Partita No. 2 in D Minor, BWV 1004
01. I. Allemande (5:49)
02. II. Courante (2:54)
03. III. Sarabande (4:14)
04. IV. Gigue (4:51)
05. V. Ciaccona (14:43)
Violin Sonata No. 3 in C Major, BWV 1005
06. I. Adagio (5:00)
07. II. Fugue (11:54)
08. III. Largo (3:11)
09. IV. Allegro assai (6:01)
Violin Partita No. 3 in E Major, BWV 1006
10. I. Preludio (3:47)
11. II. Loure (3:45)
12. III. Gavotte en rondeau (3:19)
13. IV. Menuet I (1:46)
14. V. Menuet II (2:32)
15. VI. Bourree (1:23)
16. VII. Gigue (1:50)

О релизе


Sensorial
Ondine proudly presents a release of Bach's Sonatas and Partitas for solo violin with Sirkka-Liisa Kaakinen-Pilch. Kaakinen-Pilch is an unusually versatile violinist, predominantly known for her performance of period music but also excelling in many other styles and genres. Her position as concertmaster in the orchestra of Philippe Herreweghe is testament to her skill as an early music performer.
On the present album Kaakinen-Pilch performs Bach's Sonatas and Partitas on a violin from the 17th century. This collection of works for solo violin was the pinnacle and culmination of the violin's 200-year history in its day.

ОтчётыДинамический диапазон

CD 1
foobar2000 1.2.2 / Dynamic Range Meter 1.1.1
log date: 2015-05-30 16:18:12
--------------------------------------------------------------------------------
Analyzed: Sirkka-Liisa Kaakinen-Pilch / Sonatas & Partitas for Solo Violin
--------------------------------------------------------------------------------
DR Peak RMS Duration Track
--------------------------------------------------------------------------------
DR14 -5.44 dB -24.79 dB 3:54 ?-Violin Sonata No. 1 in G Minor, BWV 1001: I. Adagio
DR14 -3.54 dB -21.32 dB 6:33 ?-Violin Sonata No. 1 in G Minor, BWV 1001: II. Fugue: Allegro
DR15 -4.39 dB -23.62 dB 3:17 ?-Violin Sonata No. 1 in G Minor, BWV 1001: III. Siciliana
DR15 -3.77 dB -23.61 dB 4:08 ?-Violin Sonata No. 1 in G Minor, BWV 1001: IV. Presto
DR16 -3.66 dB -23.59 dB 5:46 ?-Violin Partita No. 1 in B Minor, BWV 1002: I. Allemanda
DR13 -8.65 dB -25.58 dB 2:53 ?-Violin Partita No. 1 in B Minor, BWV 1002: II. Double
DR13 -7.33 dB -23.50 dB 3:15 ?-Violin Partita No. 1 in B Minor, BWV 1002: III. Corrente
DR13 -7.17 dB -25.55 dB 3:47 ?-Violin Partita No. 1 in B Minor, BWV 1002: IV. Double. Presto
DR13 -5.53 dB -23.45 dB 4:13 ?-Violin Partita No. 1 in B Minor, BWV 1002: V. Sarabanda
DR12 -8.18 dB -24.30 dB 2:59 ?-Violin Partita No. 1 in B Minor, BWV 1002: VI. Double
DR15 -3.69 dB -21.30 dB 3:28 ?-Violin Partita No. 1 in B Minor, BWV 1002: VII. Tempo di Bourree
DR14 -4.91 dB -23.58 dB 3:25 ?-Violin Partita No. 1 in B Minor, BWV 1002: VIII. Double
DR14 -6.80 dB -26.18 dB 3:57 ?-Violin Sonata No. 2 in A Minor, BWV 1003: I. Grave
DR15 -2.99 dB -21.07 dB 8:40 ?-Violin Sonata No. 2 in A Minor, BWV 1003: II. Fuga
DR15 -7.63 dB -26.17 dB 5:38 ?-Violin Sonata No. 2 in A Minor, BWV 1003: III. Andante
DR14 -6.25 dB -23.84 dB 4:45 ?-Violin Sonata No. 2 in A Minor, BWV 1003: IV. Allegro
--------------------------------------------------------------------------------
Number of tracks: 16
Official DR value: DR14
Samplerate: 96000 Hz
Channels: 2
Bits per sample: 24
Bitrate: 2641 kbps
Codec: FLAC
================================================================================
CD 2
foobar2000 1.2.2 / Dynamic Range Meter 1.1.1
log date: 2015-05-30 16:20:02
--------------------------------------------------------------------------------
Analyzed: Sirkka-Liisa Kaakinen-Pilch / Sonatas & Partitas for Solo Violin
--------------------------------------------------------------------------------
DR Peak RMS Duration Track
--------------------------------------------------------------------------------
DR15 -6.51 dB -25.72 dB 5:49 ?-Violin Partita No. 2 in D Minor, BWV 1004: I. Allemande
DR15 -3.66 dB -23.73 dB 2:54 ?-Violin Partita No. 2 in D Minor, BWV 1004: II. Courante
DR13 -7.44 dB -25.53 dB 4:14 ?-Violin Partita No. 2 in D Minor, BWV 1004: III. Sarabande
DR14 -5.20 dB -24.67 dB 4:51 ?-Violin Partita No. 2 in D Minor, BWV 1004: IV. Gigue
DR14 -2.90 dB -22.33 dB 14:43 ?-Violin Partita No. 2 in D Minor, BWV 1004: V. Ciaccona
DR13 -6.91 dB -25.14 dB 5:00 ?-Violin Sonata No. 3 in C Major, BWV 1005: I. Adagio
DR15 -3.94 dB -22.72 dB 11:54 ?-Violin Sonata No. 3 in C Major, BWV 1005: II. Fugue
DR13 -10.30 dB -26.84 dB 3:11 ?-Violin Sonata No. 3 in C Major, BWV 1005: III. Largo
DR13 -8.08 dB -25.34 dB 6:01 ?-Violin Sonata No. 3 in C Major, BWV 1005: IV. Allegro assai
DR13 -5.16 dB -24.36 dB 3:47 ?-Violin Partita No. 3 in E Major, BWV 1006: I. Preludio
DR15 -6.66 dB -25.53 dB 3:45 ?-Violin Partita No. 3 in E Major, BWV 1006: II. Loure
DR15 -5.06 dB -24.58 dB 3:19 ?-Violin Partita No. 3 in E Major, BWV 1006: III. Gavotte en rondeau
DR14 -4.89 dB -23.55 dB 1:46 ?-Violin Partita No. 3 in E Major, BWV 1006: IV. Menuet I
DR15 -5.60 dB -25.43 dB 2:32 ?-Violin Partita No. 3 in E Major, BWV 1006: V. Menuet II
DR14 -3.66 dB -22.95 dB 1:23 ?-Violin Partita No. 3 in E Major, BWV 1006: VI. Bourree
DR13 -8.21 dB -24.56 dB 1:50 ?-Violin Partita No. 3 in E Major, BWV 1006: VII. Gigue
--------------------------------------------------------------------------------
Number of tracks: 16
Official DR value: DR14
Samplerate: 96000 Hz
Channels: 2
Bits per sample: 24
Bitrate: 2655 kbps
Codec: FLAC
================================================================================

Скриншоты спектра частот

Доп. информация

При скачивании, если необходимо, переименуйте папку, в которой будет находиться альбомБольшая просьба к скачавшим поддерживать раздачу! Помогайте другим, ведь вам тоже может понадобиться помощь!Не забываем говорить "Спасибо"!Комментарии приветствуются!
[teatrix.ru].t21293.torrent 
Торрент: Зарегистрирован [ 2016-03-20 00:48 ] · A6483D32F2D6A9975A0F96125C2FE00E18BEC309

Скачать .torrent

Скачать

17 KB

Статус: проверено
Скачан: 0 раз
Размер: 2.74 GB
terms.php



Быстрый ответ

Имя:

      
Для отправки сообщений необходимо включить JavaScript
Показать сообщения:    

Текущее время: 04-Дек 11:11

Часовой пояс: UTC + 3


Вы можете начинать темы
Вы можете отвечать на сообщения
Вы не можете редактировать свои сообщения
Вы не можете удалять свои сообщения
Вы не можете голосовать в опросах
Вы не можете прикреплять файлы к сообщениям
Вы можете скачивать файлы