(Classical, Chamder) French Violin Sonatas (Debussy, Poulenc, Saint-Saens) - Midori, violin, Robert McDonald, piano - 2002, FLAC (image+.cue), lossless


 

[Цитировать]

French Violin Sonatas - Midori, McDonald
Жанр: Classical, Chamder
Страна-производитель диска: Austria
Год издания диска: 2002
Издатель (лейбл): Sony Music
Номер по каталогу: SK 89699
Дата записи: 05/2001
Аудиокодек: FLAC
Тип рипа: image+.cue
Битрейт аудио: lossless
Продолжительность: 53.19
Источник: собственный рип
Наличие сканов в содержимом раздачи: да
Исполнители: Midori, violin, Robert McDonald, piano

Треклист:

Poulenc - Sonata for Violin and Piano (1943):
01. I. Allegro con fuoco
02. II. Intermezzo. Tres lent et calme
03. III. Presto tragico
Debussy - Sonata in G minor for Violin and Piano:
04. I. Allegro vivo
05. II. Intermede. Fantasque et leger
06. III. Finale. Tres anime
Saint-Saens - Sonata No. 1 in D minor for Violin and Piano, Op. 75:
07. I. Allegro agitato - Adagio
08. II. Allegretto moderato - Allegro molto
Total 53.19

Лог создания рипа:

Exact Audio Copy V1.0 beta 3 from 29. August 2011
Отчёт EAC об извлечении, выполненном 28. мая 2015, 21:06
Midori & Robert McDonald / Debussy, Poulenc & Saint-Saens: Violin Sonatas
Дисковод: Optiarc DVD RW AD-7260S Adapter: 0 ID: 1
Режим чтения : Достоверность
Использование точного потока : Да
Отключение кэша аудио : Да
Использование указателей C2 : Нет
Коррекция смещения при чтении : 48
Способность читать области Lead-in и Lead-out : Нет
Заполнение пропущенных сэмплов тишиной : Да
Удаление блоков с тишиной в начале и конце : Нет
При вычислениях CRC использовались нулевые сэмплы : Да
Интерфейс : Встроенный Win32-интерфейс для Win NT/2000
Выходной формат : Пользовательский кодировщик
Выбранный битрейт : 896 kBit/s
Качество : Высокий
Добавление ID3-тега : Нет
Утилита сжатия : C:\Program Files\FLAC Frontend\tools\flac.exe
Дополнительные параметры : -V -8 -T "Date=%year%" -T "Genre=%genre%" %source%
TOC извлечённого CD
Трек | Старт | Длительность | Начальный сектор | Конечный сектор
---------------------------------------------------------------------
1 | 0:00.00 | 6:10.25 | 0 | 27774
2 | 6:10.25 | 6:21.47 | 27775 | 56396
3 | 12:31.72 | 5:22.43 | 56397 | 80589
4 | 17:54.40 | 5:03.07 | 80590 | 103321
5 | 22:57.47 | 4:17.35 | 103322 | 122631
6 | 27:15.07 | 4:31.68 | 122632 | 143024
7 | 31:47.00 | 12:17.40 | 143025 | 198339
8 | 44:04.40 | 9:15.17 | 198340 | 239981
Характеристики диапазона извлечения и сообщения об ошибках
Выбранный диапазон
Имя файла D:\EAC\Мои раздачи\French Violin Sonatas- Midori, McDonald\Midori & Robert McDonald - Debussy, Poulenc & Saint-Saens- Violin Sonatas.wav
Пиковый уровень 98.8 %
Скорость извлечения 3.8 X
Качество диапазона 100.0 %
CRC теста 8DEA03E9
CRC копии 8DEA03E9
Копирование... OK
Ошибок не произошло
AccurateRip: сводка
Трек 1 : извлечено точно (доверие 2) [2EABDDEA] (AR v2)
Трек 2 : извлечено точно (доверие 2) [FBB1013B] (AR v2)
Трек 3 : извлечено точно (доверие 2) [31F43383] (AR v2)
Трек 4 : извлечено точно (доверие 2) [2EEF8A6E] (AR v2)
Трек 5 : извлечено точно (доверие 2) [80E9B95C] (AR v2)
Трек 6 : извлечено точно (доверие 2) [542376CE] (AR v2)
Трек 7 : извлечено точно (доверие 2) [914C93F4] (AR v2)
Трек 8 : извлечено точно (доверие 8) [FF54C159] (AR v1)
Все треки извлечены точно
Конец отчёта
==== Контрольная сумма отчёта 9845570F3A9B7C30AAF02D5053170C60B47E502CCE5BC9F5B9C6BA6E4E6BF366 ====



Показать сообщения:    

Текущее время: 07-Дек 19:27

Часовой пояс: UTC + 3


Вы не можете начинать темы
Вы не можете отвечать на сообщения
Вы не можете редактировать свои сообщения
Вы не можете удалять свои сообщения
Вы не можете голосовать в опросах
Вы не можете прикреплять файлы к сообщениям
Вы не можете скачивать файлы