(Opera) Глинка - Иван Сусанин / Glinka - Ivan Susanin, or A Life for the Tsar (Changalovich, Dimitrievich, Glavachevich, Miladinovich - Yugoslav Army Chorus / Belgrade National Opera Orchestra, Danon) - 2007, MP3 (image+.cue) 320 kbps


Статистика раздачи [Обновить пиров]
Размер:  386 MB   |    Зарегистрирован:  8 месяцев 17 дней   |    Скачан:  0 раз

Полного источника не было: Никогда

 
   
 
 
 

[Цитировать]

Mikhail Iwanowitsch Glinka - Ivan Susanin, or A Life for the Tsar
Жанр: Opera
Год издания: 2007
Издатель (лейбл): Naxos Classical Archives
Номер по каталогу: 9.80023-25
Дата записи: 1955
Аудиокодек: MP3
Тип рипа: image+.cue
Битрейт аудио: 320 kbps
Продолжительность: 02'38'35
Источник: WEB
Наличие сканов в содержимом раздачи: да
Треклист:
1. Overture
2. Act I
3. Act II
4. Act III
5. Entr'acte
6. Act IV
7. Epilogue
Исполнители:
Mikhail Iwanowitsch Glinka - Ivan Susanin, or A Life for the Tsar
Miro Changalovich, bass
Vladeta Dimitrievich, bass
Maria Glavachevich, soprano
Bogolub Grubach, tenor
Militza Miladinovich, contralto
Ivan Murgashki, bass
Drago Startz, tenor
Belgrade National Opera Orchestra
Yugoslav Army Chorus
Oskar Danon, conductor
Содержание индексной карты (.CUE)
REM DATE 2007
PERFORMER "Miro Changalovich, bass, Vladeta Dimitrievich, bass, Maria Glavachevich, soprano, Bogolub Grubach, tenor, Militza Miladinovich, contralto, Ivan Murgashki, bass, Drago Startz, tenor, Belgrade National Opera Orchestra, Yugoslav Army Chorus, Oskar Danon, conductor "
FILE "Glinka - Ivan Susanin or A Life for the Tsar, Dalton [Changalovich, Glavachevich].mp3" WAVE
TRACK 01 AUDIO
TITLE "GLINKA: Ivan Susanin, or A Life for the Tsar - Overture "
INDEX 01 00:00:00
TRACK 02 AUDIO
TITLE "GLINKA: Ivan Susanin, or A Life for the Tsar - Act I "
INDEX 01 08:55:57
TRACK 03 AUDIO
TITLE "GLINKA: Ivan Susanin, or A Life for the Tsar - Act II "
INDEX 01 46:02:00
TRACK 04 AUDIO
TITLE "GLINKA: Ivan Susanin, or A Life for the Tsar - Act III "
INDEX 01 71:21:70
TRACK 05 AUDIO
TITLE "GLINKA: Ivan Susanin, or A Life for the Tsar - Entr'acte "
INDEX 01 121:59:46
TRACK 06 AUDIO
TITLE "GLINKA: Ivan Susanin, or A Life for the Tsar - Act IV "
INDEX 01 124:27:69
TRACK 07 AUDIO
TITLE "GLINKA: Ivan Susanin, or A Life for the Tsar - Epilogue "
INDEX 01 161:28:05
[teatrix.ru].t21298.torrent 
Торрент: Зарегистрирован [ 2016-03-20 00:47 ] · 5FDB5B0B818E70846B1A44A1C8BABA18AB8EBFEE

Скачать .torrent

Скачать

16 KB

Статус: проверено
Скачан: 0 раз
Размер: 386 MB
terms.php



Быстрый ответ

Имя:

      
Для отправки сообщений необходимо включить JavaScript
Показать сообщения:    

Текущее время: 06-Дек 17:06

Часовой пояс: UTC + 3


Вы можете начинать темы
Вы можете отвечать на сообщения
Вы не можете редактировать свои сообщения
Вы не можете удалять свои сообщения
Вы не можете голосовать в опросах
Вы не можете прикреплять файлы к сообщениям
Вы можете скачивать файлы